Торрент файл
скачать торрент магнет ссылка Добавлен: 02 июн 2016, 00:21
Размер: 1.37 ГБ
Сидеров: 495
Личеров: 20
Статус: (salma3)
Автор

СообщениеДобавлено: 02 июн 2016, 00:21 

Не в сети
Супермодератор
Аватара пользователя
Дата регистрации:
15 фев 2012, 16:44
Возраст: 28
Спасибо: 6577 / 2143
Сообщения: 43952
Моя большая греческая свадьба 2 / My Big Fat Greek Wedding 2
Страна: США Канада
Производство: Gold Circle Films, HBO Films, Playtone, Universal Pictures
Год выпуска: 2016
Жанр: мелодрама, комедия
Продолжительность: 01:33:09
Режиссер: Кирк Джонс
Автор сценария: Ниа Вардалос
В ролях: Ниа Вардалос, Джон Корбетт, Майкл Константин, Лэйни Казан, Андреа Мартин, Джиа Каридес, Джои Фатоне, Елена Кампурис
Описание: Два неудачника решают имитировать свою смерть, чтобы начать жизнь с чистого листа. Однако их новая жизнь оказывается далеко не лучше прежней...



Перевод: Любительский (многоголосый, закадровый) | Parovoz Production
Субтитры: корейские (вшитые)

Качество: WEBRip
Формат: АVI
Видео кодек: XviD
Аудио кодек: АС3
Видео: 720x304 (2.35:1), 23.976 fps, XviD ~1 317 kbps avg
Аудио: 48.0 kHz, AC3 Dolby Digital, 2/0 (L,R) ch, ~384 kbps
Дата премьеры (мир): 15 марта 2016
ПРИМЕЧАНИЕ: ПРИСУТСТВУЕТ РЕКЛАМА!
General
Format : AVI
Format/Info : Audio Video Interleave
Overall bit rate : 1 711 Kbps
Writing application : VirtualDubMod 1.5.10.3 | (build 2550/release)
Writing library : VirtualDubMod build 2550/release
Video
ID : 0
Format : MPEG-4 Visual
Format profile : Advanced Simple@L5
Format settings, BVOP : 2
Format settings, QPel : No
Format settings, GMC : No warppoints
Format settings, Matrix : Custom
Codec ID : XVID
Codec ID/Hint : XviD
Bit rate : 1 317 Kbps
Width : 720 pixels
Height : 304 pixels
Display aspect ratio : 2.35:1
Frame rate : 23.976 fps
Color space : YUV
Chroma subsampling : 4:2:0
Bit depth : 8 bits
Scan type : Progressive
Compression mode : Lossy
Bits/(Pixel*Frame) : 0.251
Stream size : 11.0 MiB (77%)
Writing library : XviD 1.2.1 (UTC 2008-12-04)
Audio
ID : 1
Format : AC-3
Format/Info : Audio Coding 3
Mode extension : CM (complete main)
Format settings, Endianness : Big
Codec ID : 2000
Bit rate mode : Constant
Bit rate : 384 Kbps
Channel(s) : 2 channels
Channel positions : Front: L R
Sampling rate : 48.0 KHz
Compression mode : Lossy
Delay relative to video : 22ms
Stream size : 3.20 MiB (22%)
Alignment : Split accross interleaves
Interleave, duration : 42 ms (1.01 video frame)
Interleave, preload duration : 500 ms



_________________
Проголосуй за трекер Открытый торрент трекер - RUS-MEDIA.ORG

Проголосуй Открытый торрент трекер - RUS-MEDIA.ORG



реклама партнёра


Вернуться к началу
 Профиль Отправить личное сообщение  
 
   Похожие торренты   Автор   Торрент   Размер 
В этой теме нет новых непрочитанных сообщений. Моя большая греческая свадьба 2 / My Big Fat Greek Wedding 2 [Мелодрама, комедия, 2016] HDRip, Dub [iTunes]

salma3

415 | 91

1.46 ГБ

В этой теме нет новых непрочитанных сообщений. Моя большая греческая свадьба 2 / My Big Fat Greek Wedding 2 [Мелодрама, комедия, 2016] HDRip, Dub [iTunes]

salma3

204 | 53

747.97 МБ

В этой теме нет новых непрочитанных сообщений. Моя большая греческая свадьба 2 / My Big Fat Greek Wedding 2 (мелодрама, комедия, семейный, 2016) BDRip-AVC от R.G.Resident | iTunes

marya111

211 | 48

2.17 ГБ

В этой теме нет новых непрочитанных сообщений. Моя большая греческая свадьба 2 / My Big Fat Greek Wedding 2 [мелодрама, комедия, семейный, 2016] BDRip 720p, Dub [iTunes]

salma3

34 | 15

4.25 ГБ

В этой теме нет новых непрочитанных сообщений. Моя большая греческая свадьба 2 / My Big Fat Greek Wedding 2 [мелодрама, комедия, семейный, 2016] BDRip 1080p, Dub [iTunes]

salma3

151 | 48

7.42 ГБ

В этой теме нет новых непрочитанных сообщений. Моя большая греческая свадьба / My Big Fat Greek Wedding [мелодрама, комедия, 2002] BDRip-AVC, Dub

salma3

89 | 18

1.49 ГБ

В этой теме нет новых непрочитанных сообщений. Моя большая греческая свадьба / My Big Fat Greek Wedding [мелодрама, комедия, 2002] BDRemux 1080p

salma3

36 | 14

16.67 ГБ


Начать новую тему Ответить на тему  [ 1 сообщение ] 




Для Мосгорсуда, Роскомнадзора и рекламодателей:: mosgorsud-torrent[собачка]yandex.ru