Торрент файл
скачать торрент магнет ссылка Добавлен: 31 май 2016, 23:35
Размер: 1.47 ГБ
Сидеров: 354
Личеров: 41
Статус: (salma3)
Автор

СообщениеДобавлено: 31 май 2016, 23:35 

Не в сети
Супермодератор
Аватара пользователя
Дата регистрации:
15 фев 2012, 16:44
Возраст: 27
Спасибо: 5130 / 2089
Сообщения: 17371
Собаки моих бывших / My Boyfriends' Dogs

Год выпуска: 2014
Жанр: комедия
Режиссер: Терри Ингрэм

В ролях: Эрика Кристенсен, Терил Ротери, Джереми Гилбо, Эмили Холмс, Джесси Хатч, Тайрон Лейтсо, Оливер Райс, Джойс Девитт, Майкл Копса, Джеб Бич

Описание:
Героиня фильма - молодая и жизнерадостная девушка, которая очень любит собак. Собственно, по этому критерию она пытается найти себе парня, который бы точно так же относился к этим милым четвероногим созданиям. Но вместо этого она постоянно встречает мерзавцев, после расставания с которыми ей достаются их собаки. Когда девушка уже отчаялась найти свой идеал мужчины, она знакомится с парнем, которого так долго искала...



Страна: США
Продолжительность: 01:26:53
Перевод: Профессиональный (многоголосый закадровый) [Официальный звук]

Файл
Качество: WEB-DLRip
Формат файла: AVI
Видео кодек: XviD
Аудио кодек: AC3
Видео: 720x400 (16:9), 23.976 fps, XviD ~1 897 kbps avg
Аудио №1: 48.0 kHz, AC3 Dolby Digital, 2 ch, ~128 kbps | [RUS]
Аудио №2: 48.0 kHz, AC3 Dolby Digital, 6 ch, ~384 kbps | [ENG]




General
Format : AVI
Format/Info : Audio Video Interleave
Overall bit rate : 2 472 Kbps
Writing application : VirtualDubMod 1.5.10.2 (build 2540/release)
Writing library : VirtualDubMod build 2540/release
Video
ID : 0
Format : MPEG-4 Visual
Format profile : Advanced Simple@L5
Format settings, BVOP : 2
Format settings, QPel : No
Format settings, GMC : No warppoints
Format settings, Matrix : Default (H.263)
Muxing mode : Packed bitstream
Codec ID : XVID
Codec ID/Hint : XviD
Bit rate : 1 897 Kbps
Width : 720 pixels
Height : 400 pixels
Display aspect ratio : 16:9
Frame rate : 23.976 fps
Color space : YUV
Chroma subsampling : 4:2:0
Bit depth : 8 bits
Scan type : Progressive
Compression mode : Lossy
Bits/(Pixel*Frame) : 0.281
Stream size : 10.8 MiB (79%)
Writing library : XviD 66
Audio #1
ID : 1
Format : AC-3
Format/Info : Audio Coding 3
Mode extension : CM (complete main)
Format settings, Endianness : Big
Codec ID : 2000
Bit rate mode : Constant
Bit rate : 128 Kbps
Channel(s) : 2 channels
Channel positions : Front: L R
Sampling rate : 48.0 KHz
Compression mode : Lossy
Stream size : 730 KiB (5%)
Alignment : Split accross interleaves
Interleave, duration : 42 ms (1.01 video frame)
Interleave, preload duration : 500 ms
Audio #2
ID : 2
Format : AC-3
Format/Info : Audio Coding 3
Mode extension : CM (complete main)
Format settings, Endianness : Big
Codec ID : 2000
Bit rate mode : Constant
Bit rate : 384 Kbps
Channel(s) : 6 channels
Channel positions : Front: L C R, Side: L R, LFE
Sampling rate : 48.0 KHz
Compression mode : Lossy
Stream size : 2.14 MiB (16%)
Alignment : Aligned on interleaves
Interleave, duration : 42 ms (1.01 video frame)
Interleave, preload duration : 512 ms


_________________



реклама партнёра


Вернуться к началу
 Профиль Отправить личное сообщение  
 
   Похожие торренты   Автор   Торрент   Размер 
В этой теме нет новых непрочитанных сообщений. Поглощён Собаки моих бывших / My Boyfriends' Dogs [комедия, 2014] WEBDLRip, Mvo [Официальный звук] Данный торрент является блокированным, причина: поглощённый торрент

salma3

111 | 36

1.24 ГБ

В этой теме нет новых непрочитанных сообщений. Собаки моих бывших / My Boyfriends' Dogs (Терри Ингрэм / Terry Ingram) [2014г., комедия, семейный, TVRip] DVO

Alfredovich

2 | 1

744.72 МБ

В этой теме нет новых непрочитанных сообщений. Тигриный хвост / A Tiger's Tail [Комедия, семейный, 2014] WEB-DLRip, Mvo [Официальный звук]

salma3

3426 | 143

1.37 ГБ

В этой теме нет новых непрочитанных сообщений. Ты не ты / You're Not You [драма, 2014] WEB-DLRip, Mvo [Официальный звук]

salma3

484 | 18

1.46 ГБ

В этой теме нет новых непрочитанных сообщений. Шар / The Device [ужасы, фантастика, триллер, 2014] WEB-DLRip, Mvo [Официальный звук]

Dracon

38 | 2

1.36 ГБ

В этой теме нет новых непрочитанных сообщений. Эскорт / The Escort (Уилл Слокомб) [Комедия, 2015] WEB-DLRip, Mvo [Официальный звук]

Dracon

1918 | 145

1.37 ГБ

В этой теме нет новых непрочитанных сообщений. Рок на Востоке / Rock the Kasbah (Бэрри Левинсон) [Комедия, музыка, 2015] WEB-DLRip, dub [Официальный звук]

Dracon

262 | 16

1.37 ГБ


Начать новую тему Ответить на тему  [ 1 сообщение ] 




Для Мосгорсуда, Роскомнадзора и рекламодателей:: mosgorsud-torrent[собачка]yandex.ru