Торрент файл
скачать торрент магнет ссылка Добавлен: 30 май 2016, 12:07
Размер: 749.76 МБ
Сидеров: 26
Личеров: 2
Статус: (salma3)
Автор

СообщениеДобавлено: 30 май 2016, 12:07 

В сети
Супермодератор
Аватара пользователя
Дата регистрации:
15 фев 2012, 16:44
Возраст: 27
Спасибо: 5143 / 2090
Сообщения: 17501
Фантастическая четверка / The Fantastic Four

Год выхода: 1994
Жанр: Фантастика, боевик
Режиссер: Олей Сэссон / Oley Sassone

В ролях: Алекс Хайд-Вайт, Ребекка Стааб, Джей Андервуд, Майкл Бэйли Смит, Карл Киарфалио, Джозеф Калп, Йен Триггер, Кэт Грин

О фильме:
В результате неудачного эксперимента погибает друг Рида Ричардса — Виктор. Десять лет спустя Ричардс собирает команду из четырех человек, чтобы полететь в космос и повторить эксперимент. На этот раз он намерен добиться успеха, чтобы смерть друга не была напрасной. Но в их планы вмешиваются другие силы, в результате чего герои получают необычайные способности...



Страна: Германия, США
Продолжительность: 01:30:17
Перевод: Любительский (одноголосый, закадровый) [tramvai-film]

Файл
Качество: DVDRip
Формат файла: AVI
Видео кодек: XviD
Аудио кодек: AC3
Видео: XviD, 640x352, 23.976fps, 891kbps
Аудио: MPEG Layer 3, 2ch, 44100Hz, 128kbps [русский]
Аудио: MPEG Layer 3, 2ch, 48000Hz, 128kbps [оригинальный]


General
Complete name : Fantasticheskaa.Chetverka.1994.L1.DVDRip.700.CurHaJI.avi
Format : AVI
Format/Info : Audio Video Interleave
File size : 750 MiB
Duration : 1h 30mn
Overall bit rate mode : Variable
Overall bit rate : 1 161 Kbps
Movie name : Fantasticheskaa.Chetverka.1984.L1.DVDRip.700.CurHaJI
Writing application : VirtualDubMod 1.5.10.2 (build 2540/release)
Writing library : VirtualDubMod build 2540/release
Video
ID : 0
Format : MPEG-4 Visual
Format profile : Advanced Simple@L5
Format settings, BVOP : 1
Format settings, QPel : No
Format settings, GMC : No warppoints
Format settings, Matrix : Custom
Codec ID : XVID
Codec ID/Hint : XviD
Duration : 1h 30mn
Bit rate : 891 Kbps
Width : 640 pixels
Height : 352 pixels
Display aspect ratio : 16:9
Frame rate : 23.976 fps
Color space : YUV
Chroma subsampling : 4:2:0
Bit depth : 8 bits
Scan type : Progressive
Compression mode : Lossy
Bits/(Pixel*Frame) : 0.165
Stream size : 575 MiB (77%)
Writing library : XviD 1.2.1 (UTC 2008-12-04)
Audio #1
ID : 1
Format : MPEG Audio
Format version : Version 1
Format profile : Layer 3
Codec ID : 55
Codec ID/Hint : MP3
Duration : 1h 30mn
Bit rate mode : Constant
Bit rate : 128 Kbps
Channel(s) : 2 channels
Sampling rate : 44.1 KHz
Compression mode : Lossy
Delay relative to video : 5s 0ms
Stream size : 82.6 MiB (11%)
Alignment : Split accross interleaves
Interleave, duration : 42 ms (1.00 video frame)
Interleave, preload duration : 500 ms
Writing library : L3.99r
Encoding settings : -m s -V 4 -q 2 -lowpass 17 -b 128
Audio #2
ID : 2
Format : MPEG Audio
Format version : Version 1
Format profile : Layer 3
Mode : Joint stereo
Mode extension : MS Stereo
Codec ID : 55
Codec ID/Hint : MP3
Duration : 1h 30mn
Bit rate mode : Variable
Bit rate : 128 Kbps
Channel(s) : 2 channels
Sampling rate : 48.0 KHz
Compression mode : Lossy
Stream size : 82.7 MiB (11%)
Alignment : Split accross interleaves
Interleave, duration : 42 ms (1.00 video frame)
Interleave, preload duration : 500 ms


Релиз от:


_________________



реклама партнёра


Вернуться к началу
 Профиль Отправить личное сообщение  
 
   Похожие торренты   Автор   Торрент   Размер 
В этой теме нет новых непрочитанных сообщений. Фантастическая четверка / Fantastic Four (Джошуа Транк) [фантастика, боевик, приключения, 2015] DVD5, Dub+Sub [Лицензия]

Dracon

147 | 16

4.38 ГБ

В этой теме нет новых непрочитанных сообщений. Фантастическая четверка / Fantastic Four (Джошуа Транк) [фантастика, боевик, приключения, 2015] BDRip 720p, Dub+Sub [Лицензия]

Dracon

434 | 7

5.32 ГБ

В этой теме нет новых непрочитанных сообщений. Фантастическая четверка / Fantastic Four (Джошуа Транк) [фантастика, боевик, приключения, 2015] BDRemux 1080p, Dub+Sub [Лицензия]

Dracon

239 | 35

25.19 ГБ

В этой теме нет новых непрочитанных сообщений. Фантастическая четверка / Fantastic Four (Джошуа Транк) [фантастика, боевик, приключения, 2015] HDRip, dub [Чистый звук]

Dracon

1580 | 10

1.45 ГБ

В этой теме нет новых непрочитанных сообщений. Фантастическая четверка / Fantastic Four (Джошуа Транк) [фантастика, боевик, приключения, 2015] BDRip 1080p, Dub+Sub [Лицензия]

Dracon

766 | 65

10.63 ГБ

В этой теме нет новых непрочитанных сообщений. Фантастическая четверка / Fantastic Four (Джошуа Транк) [фантастика, боевик, приключения, 2015] BDRip 1080p, dub [Чистый звук]

Dracon

3502 | 264

7.78 ГБ

В этой теме нет новых непрочитанных сообщений. Фантастическая четверка / Fantastic Four (Джошуа Транк) [фантастика, боевик, приключения, 2015] BDRip 720p, dub [Чистый звук]

Dracon

810 | 62

4.51 ГБ


Начать новую тему Ответить на тему  [ 1 сообщение ] 




Для Мосгорсуда, Роскомнадзора и рекламодателей:: mosgorsud-torrent[собачка]yandex.ru