Торрент файл
скачать торрент магнет ссылка Добавлен: 28 май 2016, 13:25
Размер: 1.37 ГБ
Сидеров: 1587
Личеров: 115
Статус: (salma3)
Автор

СообщениеДобавлено: 28 май 2016, 13:25 

Не в сети
Супермодератор
Аватара пользователя
Дата регистрации:
15 фев 2012, 16:44
Возраст: 28
Спасибо: 6594 / 2145
Сообщения: 44275
Шальное ранение / Blunt Force Trauma

Год выпуска:2015
Жанр:[ боевик
Режиссер: Кен Сэнзел

В ролях:Райан Квантен, Фрида Пинто, Микки Рурк, Джон Мак, Каролина Гомес, Джейсон Гибсон, Рубен Самора, Стивен Галарсе

Описание:
Джон и Кольт — очень отчаянная пара и привыкли к опасности. Самое невероятное заключается в том, что в самых опасных и экстремальных ситуациях у них находится время для любви. Они являются одновременно и напарниками и любовниками, но рано или поздно им придется сделать выбор и понять, что для них более важно: деньги или чувства...



Страна: Колумбия
Продолжительность: 01:36:37
Перевод: Профессиональный (полное дублирование) [официальный звук]

Файл
Качество: HDRip
Формат файла: AVI
Видео кодек: XviD
Аудио кодек: AC3
Видео: 720x400 (16:9), 23.976 fps, XviD ~1 632 kbps avg, 0.236 bit/pixel
Аудио: 48.0 kHz, AC3 Dolby Digital, 2/0 (L,R) ch, ~192 kbps




General
Format : AVI
Format/Info : Audio Video Interleave
Overall bit rate : 1 835 Kbps
Writing application : VirtualDubMod 1.5.10.3 | (build 2550/release)
Writing library : VirtualDubMod build 2550/release
Video
ID : 0
Format : MPEG-4 Visual
Format profile : Advanced Simple@L5
Format settings, BVOP : 2
Format settings, QPel : No
Format settings, GMC : No warppoints
Format settings, Matrix : Default (MPEG)
Codec ID : XVID
Codec ID/Hint : XviD
Bit rate : 1 632 Kbps
Width : 720 pixels
Height : 400 pixels
Display aspect ratio : 16:9
Frame rate : 23.976 fps
Color space : YUV
Chroma subsampling : 4:2:0
Bit depth : 8 bits
Scan type : Progressive
Compression mode : Lossy
Bits/(Pixel*Frame) : 0.236
Stream size : 12.4 MiB (89%)
Writing library : XviD 1.2.1 (UTC 2008-12-04)
Audio
ID : 1
Format : AC-3
Format/Info : Audio Coding 3
Mode extension : CM (complete main)
Format settings, Endianness : Big
Codec ID : 2000
Bit rate mode : Constant
Bit rate : 192 Kbps
Channel(s) : 2 channels
Channel positions : Front: L R
Sampling rate : 48.0 KHz
Compression mode : Lossy
Stream size : 1.46 MiB (10%)
Alignment : Split accross interleaves
Interleave, duration : 42 ms (1.01 video frame)
Interleave, preload duration : 500 ms


_________________
Проголосуй за трекер Открытый торрент трекер - RUS-MEDIA.ORG

Проголосуй Открытый торрент трекер - RUS-MEDIA.ORG



реклама партнёра


Вернуться к началу
 Профиль Отправить личное сообщение  
 
   Похожие торренты   Автор   Торрент   Размер 
В этой теме нет новых непрочитанных сообщений. Шальное ранение / Blunt Force Trauma [боевик, 2015] BDRip 1080p, Dub

salma3

530 | 73

6.95 ГБ

В этой теме нет новых непрочитанных сообщений. Звёздные войны: Пробуждение силы / Star Wars: The Force Awakens [Фантастика, фэнтези, боевик, приключения, 2015] HDRip, Dub [чистый звук]

salma3

534 | 15

1.46 ГБ

В этой теме нет новых непрочитанных сообщений. Блант говорит / Blunt Talk [01х01-10 из 10] (Тристрам Шапиро, Билл Д’Элиа) [Комедия, 2015] WEB-DLRip [Jaskier]

Dracon

6 | 5

3.76 ГБ

В этой теме нет новых непрочитанных сообщений. Блант говорит / Blunt Talk [01х01-07 из 10] (Тристрам Шапиро, Билл Д’Элиа) [Комедия, 2015] WEB-DL 720p [AlexFilm]

Dracon

0 | 4

6.57 ГБ

В этой теме нет новых непрочитанных сообщений. Блант говорит / Blunt Talk [01x01-10 из 10] (Тристрам Шапиро, Билл Д’Элиа) [2015, Комедия, WEB-DL 720p | Jaskier]

Dracon

5 | 4

9.07 ГБ

В этой теме нет новых непрочитанных сообщений. Неукротимая сила / Raw Force [боевик, приключения, 1982] HDRip, Avo

salma3

92 | 3

744.85 МБ

В этой теме нет новых непрочитанных сообщений. Спецотряд «Форс» 2 / Force 2 [Боевик, триллер, детектив, 2016] HDRip, Mvo

salma3

85 | 68

1.45 ГБ


Начать новую тему Ответить на тему  [ 1 сообщение ] 




Для Мосгорсуда, Роскомнадзора и рекламодателей:: mosgorsud-torrent[собачка]yandex.ru