Торрент файл
скачать торрент магнет ссылка Добавлен: 27 май 2016, 20:24
Размер: 1.81 ГБ
Сидеров: 29
Личеров: 3
Статус: (salma3)
Автор

СообщениеДобавлено: 27 май 2016, 20:24 

Не в сети
Супермодератор
Аватара пользователя
Дата регистрации:
15 фев 2012, 16:44
Возраст: 27
Спасибо: 6224 / 2125
Сообщения: 33548
Страдающий бессонницей / The Insomniac

Год выпуска: 2013
Жанр: триллер, драма, детектив
Режиссер: Монти Миранда

В ролях: Эдди Саласар, Клэр Грант, Дэнни Трехо, Джон Хёрд, Кит Шарабайка, Бретт ДельБуоно, Спенсер Бергер, Алими Баллард, Стэн Хэррингтон, Данте Суэйн

Описание:
Жизнь обычного менеджера Джона Фигга меняется в тот момент, когда неизвестные устроили в его доме погром и украли ценные для него вещи. После этого парень перестает спать по ночам. Его бессонница стала его приговором. Каждая ночь - новое испытание, которое все труднее пережить. Ночная жизнь начинает сводить его с ума. Лекарства стают бессильными, а ночи все длиннее и страшнее. Каждую ночь он сопоставляет факты, дни, минуты, знакомых - все кто мог совершить ограбление. Он без раздумий убьет всех, кто с этим связан.



Страна: США
Продолжительность: 01:34:11
Перевод: Профессиональный (многоголосый закадровый)

Файл
Качество: WEB-DLRip-AVC
Формат файла: MKV
Видео кодек: H.264
Аудио кодек: AC3
Видео: 1280x532 (2.40:1), 25.000 fps, AVC (H.264), ~ 2569 Кbps, 0.151 bit/pixel
Аудио: 48 kHz, AC3 Dolby Digital, 2/0 (L,R) ch, ~192 kbps


General
Unique ID : 197155366730533627834257368380868011825 (0x9452BE1117779E91A6282FC8A0B62731)
Complete name : E:\Страдающий бессонницей.2013_Klayd X.mkv
Format : Matroska
File size : 1.81 GiB
Duration : 1h 34mn
Overall bit rate : 2 756 Kbps
Encoded date : UTC 2016-05-26 10:35:07
Writing application : mkvmerge v6.1.0 ('Old Devil') built on Mar 4 2013 09:10:42
Writing library : libebml v1.3.0 + libmatroska v1.4.0

Video
ID : 1
Format : AVC
Format/Info : Advanced Video Codec
Format profile :
Format settings, CABAC : Yes
Format settings, ReFrames : 4 frames
Codec ID : V_MPEG4/ISO/AVC
Duration : 1h 34mn
Bit rate : 2 569 Kbps
Width : 1 280 pixels
Height : 532 pixels
Display aspect ratio : 2.40:1
Frame rate mode : Variable
Frame rate : 25.000 fps
Color space : YUV
Chroma subsampling : 4:2:0
Bit depth : 8 bits
Scan type : Progressive
Bits/(Pixel*Frame) : 0.151
Stream size : 1.65 GiB (91%)
Writing library : x264 core 142
Encoding settings : cabac=1 / ref=3 / deblock=1:0:0 / analyse=0x3:0x113 / me=hex / subme=7 / psy=1 / psy_rd=1.00:0.00 / mixed_ref=1 / me_range=16 / chroma_me=1 / trellis=1 / 8x8dct=1 / cqm=0 / deadzone=21,11 / fast_pskip=1 / chroma_qp_offset=-2 / threads=36 / lookahead_threads=4 / sliced_threads=0 / nr=0 / decimate=1 / interlaced=0 / bluray_compat=0 / constrained_intra=0 / bframes=6 / b_pyramid=2 / b_adapt=1 / b_bias=0 / direct=1 / weightb=1 / open_gop=0 / weightp=2 / keyint=200 / keyint_min=20 / scenecut=0 / intra_refresh=0 / rc_lookahead=40 / rc=2pass / mbtree=1 / bitrate=2569 / ratetol=1.0 / qcomp=0.60 / qpmin=0 / qpmax=69 / qpstep=4 / cplxblur=20.0 / qblur=0.5 / vbv_maxrate=3854 / vbv_bufsize=10279 / nal_hrd=none / filler=0 / ip_ratio=1.40 / aq=1:1.00
Language : English

Audio
ID : 2
Format : AC-3
Format/Info : Audio Coding 3
Mode extension : CM (complete main)
Codec ID : A_AC3
Duration : 1h 34mn
Bit rate mode : Constant
Bit rate : 192 Kbps
Channel(s) : 2 channels
Channel positions : Front: L R
Sampling rate : 48.0 KHz
Bit depth : 16 bits
Compression mode : Lossy
Stream size : 129 MiB (7%)




_________________
Проголосуй за трекер Открытый торрент трекер - RUS-MEDIA.ORG

Проголосуй Открытый торрент трекер - RUS-MEDIA.ORG



реклама партнёра


Вернуться к началу
 Профиль Отправить личное сообщение  
 
   Похожие торренты   Автор   Торрент   Размер 
В этой теме нет новых непрочитанных сообщений. Страдающий амнезией / Amnesiac (Майкл Полиш) [Ужасы, триллер, драма, детектив, 2015] BDRip 720p, dvo+avo

Dracon

383 | 41

4.71 ГБ

В этой теме нет новых непрочитанных сообщений. Доза Реальности / Dose of Reality [триллер, драма, детектив, 2013] WEB-DLRip, Mvo

salma3

335 | 26

1.37 ГБ

В этой теме нет новых непрочитанных сообщений. Принц из снов / Dream for an Insomniac [драма, мелодрама, комедия, 1996] DVDRip, Mvo

salma3

32 | 4

991.07 МБ

В этой теме нет новых непрочитанных сообщений. Ганнибал / Hannibal [01-03х01-27 из 39] (Гильермо Наварро, Майкл Раймер, Дэвид Слэйд) [Детектив, триллер, криминал, драма, 2013-2015] WEB-DLRip [AlexFilm]

Dracon

37 | 18

13.67 ГБ

В этой теме нет новых непрочитанных сообщений. Другая я / Another Me [триллер, детектив, 2013] WEB-DLRip, Mvo

salma3

411 | 9

1.46 ГБ

В этой теме нет новых непрочитанных сообщений. Audrey Bitoni / The Insomniac Sucker (2015) HD 720p

Dile-1

5 | 4

1005.65 МБ

В этой теме нет новых непрочитанных сообщений. Уик-Энд / Weekend [Драма, детектив, криминал, 2013] WEB-DLRip

Dracon

96 | 45

1.46 ГБ


Начать новую тему Ответить на тему  [ 1 сообщение ] 




Для Мосгорсуда, Роскомнадзора и рекламодателей:: mosgorsud-torrent[собачка]yandex.ru