Торрент файл
скачать торрент магнет ссылка Добавлен: 24 май 2016, 21:35
Размер: 1.4 ГБ
Сидеров: 81
Личеров: 42
Статус: (salma3)
Автор

СообщениеДобавлено: 24 май 2016, 21:35 

Не в сети
Супермодератор
Аватара пользователя
Дата регистрации:
15 фев 2012, 16:44
Возраст: 28
Спасибо: 6594 / 2145
Сообщения: 44279
Страна:[/color] Канада США
Производство: Slingshot Productions
Год выпуска: 1997
Жанр: триллер
Продолжительность: 01:33:54
Режиссер: Ален Залум

В ролях: Патрик Бергин, Джейн Хейтмейер, Витторио Росси, Гэри Бьюзи, Дэниэл Пилон, Лилиана Коморовска, Эллен Дэвид, Брюс Динсмор

Описание: «Моя жена мне изменяет», — сказал Ричард Уитмор Джеку Рэмзи, частному детективу. Джеку это было не в новинку, но он не мог даже предположить, что произойдет. Количество трупов будет расти, верить другим равносильно самоубийству, а зловещая фигура Вика Малви заставит опасаться за свою жизнь. До последней минуты вы будете гадать, кто решил добиться своей цели, идя по трупам...



Перевод: Авторский (одноголосый) | Сергей Визгунов + Профессиональный (многоголосый, закадровый)
Субтитры: нет

Качество: DVDRip
Формат: АVI
Видео кодек: XviD
Аудио кодек: АС3
Видео: 640x464 (1.379), 23.976 fps, XviD 73 ~1 736 kbps avg, 0.244 bit/pixel
Аудио №1: 48.0 kHz, AC3 Dolby Digital, 2/0 (L,R) ch, ~192 kbps | AVO
Аудио №2: 48.0 kHz, AC3 Dolby Digital, 2/0 (L,R) ch, ~192 kbps | MVO
Дата премьеры (мир): 10 июля 1997

General
Полное имя : Подозрительные лица - Suspicious Minds [by ale_x2008].avi
Format : AVI
Format/Info : Audio Video Interleave
File size : 1.40 GiB
Duration : 1h 33mn
Overall bit rate : 2 134 Kbps
Movie name : Подозрительные лица - Suspicious Minds [by ale_x2008]
Writing application : VirtualDubMod 1.5.10.2 (build 2540/release)
Copyright : Edich2
Video
ID : 0
Format : MPEG-4 Visual
Format profile : Advanced Simple@L5
Format settings, BVOP : 2
Format settings, QPel : No
Format settings, GMC : No warppoints
Format settings, Matrix : Custom
Codec ID : XVID
Codec ID/Hint : XviD
Duration : 1h 33mn
Bit rate : 1 736 Kbps
Width : 640 pixels
Height : 464 pixels
Display aspect ratio : 1.379
Frame rate : 23.976 (23976/1000) fps
Color space : YUV
Chroma subsampling : 4:2:0
Bit depth : 8 bits
Scan type : Progressive
Compression mode : Lossy
Bits/(Pixel*Frame) : 0.244
Stream size : 1.14 GiB (81%)
Writing library : XviD 73
Audio #1
ID : 1
Format : AC-3
Format/Info : Audio Coding 3
Mode extension : CM (complete main)
Format settings, Endianness : Big
Codec ID : 2000
Duration : 1h 33mn
Bit rate mode : Constant
Bit rate : 192 Kbps
Channel(s) : 2 channels
Channel positions : Front: L R
Sampling rate : 48.0 KHz
Frame rate : 31.250 fps (1536 spf)
Compression mode : Lossy
Stream size : 129 MiB (9%)
Alignment : Split accross interleaves
Interleave, duration : 42 ms (1.00 video frame)
Interleave, preload duratio : 500 ms
Audio #2
ID : 2
Format : AC-3
Format/Info : Audio Coding 3
Mode extension : CM (complete main)
Format settings, Endianness : Big
Codec ID : 2000
Duration : 1h 33mn
Bit rate mode : Constant
Bit rate : 192 Kbps
Channel(s) : 2 channels
Channel positions : Front: L R
Sampling rate : 48.0 KHz
Frame rate : 31.250 fps (1536 spf)
Compression mode : Lossy
Stream size : 129 MiB (9%)
Alignment : Split accross interleaves
Interleave, duration : 42 ms (1.00 video frame)
Interleave, preload duratio : 500 ms



_________________
Проголосуй за трекер Открытый торрент трекер - RUS-MEDIA.ORG

Проголосуй Открытый торрент трекер - RUS-MEDIA.ORG



реклама партнёра


Вернуться к началу
 Профиль Отправить личное сообщение  
 
   Похожие торренты   Автор   Торрент   Размер 
В этой теме нет новых непрочитанных сообщений. Подозрительные лица / The Usual Suspects [Боевик, Детектив, Криминал, 1995] BDRip, Avo [Гаврилов]

salma3

33 | 4

1.46 ГБ

В этой теме нет новых непрочитанных сообщений. Без лица / Face /Off [боевик, триллер, криминал, 1997] HDRip-AVC, Dub

salma3

28 | 3

769.39 МБ

В этой теме нет новых непрочитанных сообщений. Без лица / Face/Off [Боевик, триллер, криминал, 1997] BDRemux 1080p, Dub

salma3

10 | 20

29.98 ГБ

В этой теме нет новых непрочитанных сообщений. Опасные умы / Dangerous Minds [Драма, криминал, триллер, 1995] WEB-DLRip-AVC, Mvo+Avo

salma3

16 | 2

2.17 ГБ

В этой теме нет новых непрочитанных сообщений. Мыслить как преступник / Criminal Minds [S02] [драма, криминал, детектив, триллер, 2006-2007] WEB-DL 720p, Dvo [ДТВ]

salma3

6 | 11

32.86 ГБ

В этой теме нет новых непрочитанных сообщений. Опасные мысли / Dangerous minds [драма, криминал, триллер, экранизация, 1995] WEB-DLRip 720p, Dvo

salma3

44 | 9

4.64 ГБ

В этой теме нет новых непрочитанных сообщений. Мыслить как преступник / Criminal Minds [S01] [драма, криминал, детектив, триллер, 2005-2006] WEB-DL 720p, Dvo [ДТВ]

salma3

67 | 39

30.97 ГБ


Начать новую тему Ответить на тему  [ 1 сообщение ] 




Для Мосгорсуда, Роскомнадзора и рекламодателей:: mosgorsud-torrent[собачка]yandex.ru