Торрент файл
скачать торрент магнет ссылка Добавлен: 24 май 2016, 21:33
Размер: 1.46 ГБ
Сидеров: 43
Личеров: 0
Статус: (salma3)
Автор

СообщениеДобавлено: 24 май 2016, 21:33 

Не в сети
Супермодератор
Аватара пользователя
Дата регистрации:
15 фев 2012, 16:44
Возраст: 27
Спасибо: 5135 / 2089
Сообщения: 17405
Год выхода: 1992
Жанр: Боевик, комедия, криминал
Режиссер: Брюс А. Эванс / Bruce A. Evans

В ролях: Кристиан Слэйтер, Милла Йовович, Рик Во, Стив Холидей, Чад Рэндолл, Кларк Коулмэн, Леон Риппи, Крэйг Бентон, Эшли Джадд, Брюс Бокслейтнер

О фильме:
У Джорджа Каффса, молодого парня из Сан-Франциско, куча проблем: он не может найти работу, вечно сидит без денег, а тут ещё его подружка забеременела. Вся надежда на старшего брата - владельца охранного агентства, защищающего мелких предпринимателей от вымогателей и грабителей. Но брат погибает от руки гангстера и Джордж, унаследовав семейную "вотчину", сам начинает активную борьбу с бандитами и продажными полицейскими.



Страна: США
Продолжительность: 01:41:26
Перевод: Профессиональный (двухголосый закадровый) - SDI Media, Авторский (одноголосый закадровый) - А. Гаврилов

Файл
Кодек: XviD
Качество: WEB-DLRip
Видео: 704x384, 23,976 fps, 1666 kbps
Аудио 1: АС3, 2 ch, 192 kbps, 48.0 khz.....(двухголосый закадровый) SDI Media
Аудио 2: АС3, 2 ch, 192 kbps, 48.0 khz......Авторский (одноголосый закадровый) А. Гаврилов
Общее
Полное имя : Kuffs.1992.WEB-DLRip.avi
Формат : AVI
Формат/Информация : Audio Video Interleave
Размер файла : 1,46 Гбайт
Продолжительность : 1 ч. 41 м.
Общий поток : 2064 Кбит/сек
Программа кодирования : VirtualDubMod 1.5.10.2 (build 2542/release)
Библиотека кодирования : VirtualDubMod build 2542/release
Видео
Идентификатор : 0
Формат : MPEG-4 Visual
Профиль формата : Advanced Simple@L5
Параметр BVOP формата : 1
Параметр QPel формата : Нет
Параметр GMC формата : Без точки перехода
Параметр матрицы формата : Выборочная
Идентификатор кодека : XVID
Идентификатор кодека/Подсказка : XviD
Продолжительность : 1 ч. 41 м.
Битрейт : 1666 Кбит/сек
Ширина : 704 пикс.
Высота : 384 пикс.
Соотношение сторон : 16:9
Частота кадров : 23,976 кадр/сек
Цветовое пространство : YUV
Подвыборка цветности : 4:2:0
Битовая глубина : 8 бит
Тип развёртки : Прогрессивная
Метод сжатия : С потерями
Бит/(Пиксели*Кадры) : 0.257
Размер потока : 1,18 Гбайт (81%)
Библиотека кодирования : XviD 73
Аудио #1
Идентификатор : 1
Формат : AC-3
Формат/Информация : Audio Coding 3
Расширение режима : CM (complete main)
Идентификатор кодека : 2000
Продолжительность : 1 ч. 41 м.
Вид битрейта : Постоянный
Битрейт : 192 Кбит/сек
Канал(ы) : 2 канала(ов)
Расположение каналов : Front: L R
Частота : 48,0 КГц
Битовая глубина : 16 бит
Метод сжатия : С потерями
Размер потока : 139 Мбайт (9%)
Выравнивание : Разделение по промежуткам
Продолжительность промежутка : 42 мс. (1,00 видеокадр)
Время предзагрузки промежутка : 500 ms
Аудио #2
Идентификатор : 2
Формат : AC-3
Формат/Информация : Audio Coding 3
Расширение режима : CM (complete main)
Идентификатор кодека : 2000
Продолжительность : 1 ч. 41 м.
Вид битрейта : Постоянный
Битрейт : 192 Кбит/сек
Канал(ы) : 2 канала(ов)
Расположение каналов : Front: L R
Частота : 48,0 КГц
Битовая глубина : 16 бит
Метод сжатия : С потерями
Размер потока : 139 Мбайт (9%)
Выравнивание : Разделение по промежуткам
Продолжительность промежутка : 42 мс. (1,00 видеокадр)
Время предзагрузки промежутка : 500 ms

Релиз от: Leon-masl


_________________



реклама партнёра


Вернуться к началу
 Профиль Отправить личное сообщение  
 
   Похожие торренты   Автор   Торрент   Размер 
В этой теме нет новых непрочитанных сообщений. Двойные неприятности / Double Trouble [боевик, триллер, комедия, криминал, 1992] HDTVRip, Dvo [НТВ+]

salma3

36 | 6

1.37 ГБ

В этой теме нет новых непрочитанных сообщений. Суперледи - полицейский / Kong fung mat ling [Боевик, комедия, криминал, приключения, 1992] DVDRip, Dvo

salma3

25 | 9

1.36 ГБ

В этой теме нет новых непрочитанных сообщений. Зубастики. Квадрология / Critters. Quadrilogy (Стивен Херек, Мик Гэррис, Кристин Питерсон, Руперт Харви.) [ужасы, фантастика, боевик, триллер, комедия, 1986-1992] WEB-DLRip-AVC, Mvo+Avo+Sub

Dracon

60 | 14

8.72 ГБ

В этой теме нет новых непрочитанных сообщений. 1992 / 1992 [01x01-10 из 10] (Джузеппе Джальярди) [2015, Драма, WEB-DLRip | Эй Би Видео]

Dracon

18 | 83

7.31 ГБ

В этой теме нет новых непрочитанных сообщений. Сила веры / Leap of Faith [комедия, 1992] WEB-DLRip, Dvo

salma3

19 | 2

1.46 ГБ

В этой теме нет новых непрочитанных сообщений. На живца / Bait [Боевик, криминал, комедия, 2000] WEB-DLRip, Avo

salma3

20 | 4

1.46 ГБ

В этой теме нет новых непрочитанных сообщений. Недоумки / Доноры мозга / Brain Donors [Комедия, 1992] WEB-DLRip, Mvo

salma3

81 | 24

1.37 ГБ


Начать новую тему Ответить на тему  [ 1 сообщение ] 




Для Мосгорсуда, Роскомнадзора и рекламодателей:: mosgorsud-torrent[собачка]yandex.ru