Торрент файл
скачать торрент магнет ссылка Добавлен: 23 май 2016, 13:40
Размер: 1.41 ГБ
Сидеров: 5683
Личеров: 401
Статус: (salma3)
Автор

СообщениеДобавлено: 23 май 2016, 13:40 

Не в сети
Супермодератор
Аватара пользователя
Дата регистрации:
15 фев 2012, 16:44
Возраст: 27
Спасибо: 5130 / 2089
Сообщения: 17372
Год выхода: 2016
Жанр: Комедия
Режиссер: Дон Майкл Пол

В ролях: Дольф Лундгрен, Фиона Врум, Сара Стрэйндж, Алекс Паунович, Билл Беллами, Андре Трикоте, Джоди Томпсон, Рафаэль Алехандро, Дарла Тейлор, Энид-Рэй Адамс

О фильме: Главный герой и его верный напарник должны найти съемный накопитель с секретными данными, касающимися федеральной программы защиты свидетелей, который, по случайному стечению обстоятельств, оказывается в руках прелестной воспитательницы детского сада. Но ситуацию усугубляет то, что за этой информацией параллельно охотятся албанские бандиты…




Выпущено: США
Продолжительность: 01:40:06
Перевод: Дублированный (Лицензия, R5)

Файл
Кодек: х264
Качество: BDRip-AVC
Видео: MPEG-4, 1637 Кбит/с, 720x406
Звук: AC3, 6 ch, 384 Кбит/с
Субтитры: Английские (вшитые, отключаемые / UTF-8)
Общее
Уникальный идентификатор : 222788603633143055352696065374855494252 (0xA79B86388F38F59F843699119595FA6C)
Полное имя : D:TempKindergarten.Cop.2.2016.BDRip(AVC) by Vovan366(ExKinoRay).mkv
Формат : Matroska
Версия формата : Version 4 / Version 2
Размер файла : 1,41 Гбайт
Продолжительность : 1 ч. 40 м.
Общий поток : 2021 Кбит/сек
Название фильма : Kindergarten.Cop.2.2016.BDRip(AVC) by Vovan366(ExKinoRay)
Дата кодирования : UTC 2016-05-22 11:11:52
Программа кодирования : mkvmerge v9.1.0 ('Little Earthquakes') 64bit
Библиотека кодирования : libebml v1.3.3 + libmatroska v1.4.4
DURATION : 01:38:45.184000000
NUMBER_OF_FRAMES : 1495
NUMBER_OF_BYTES : 54719
_STATISTICS_WRITING_APP : mkvmerge v9.1.0 ('Little Earthquakes') 64bit
_STATISTICS_WRITING_DATE_UTC : 2016-05-22 11:11:52
_STATISTICS_TAGS : BPS DURATION NUMBER_OF_FRAMES NUMBER_OF_BYTES
Видео
Идентификатор : 1
Формат : AVC
Формат/Информация : Advanced Video Codec
Профиль формата : High@L4.1
Параметр CABAC формата : Да
Параметр ReFrames формата : 10 кадров
Идентификатор кодека : V_MPEG4/ISO/AVC
Продолжительность : 1 ч. 40 м.
Битрейт : 1637 Кбит/сек
Ширина : 720 пикселей
Высота : 406 пикселей
Соотношение сторон : 16:9
Режим частоты кадров : Постоянный
Частота кадров : 23,976 кадра/сек
Цветовое пространство : YUV
Субдискретизация насыщенности : 4:2:0
Битовая глубина : 8 бит
Тип развёртки : Прогрессивная
Бит/(Пиксели*Кадры) : 0.234
Размер потока : 1,12 Гбайт (79%)
Заголовок : by Vovan366(ExKinoRay)
Библиотека кодирования : x264 core 130 r2273 b3065e6
Настройки программы : cabac=1 / ref=10 / deblock=1:-3:-3 / analyse=0x3:0x133 / me=umh / subme=10 / psy=1 / psy_rd=1.00:0.10 / mixed_ref=1 / me_range=32 / chroma_me=1 / trellis=2 / 8x8dct=1 / cqm=0 / deadzone=21,11 / fast_pskip=0 / chroma_qp_offset=-3 / threads=6 / lookahead_threads=1 / sliced_threads=0 / nr=0 / decimate=0 / interlaced=0 / bluray_compat=0 / constrained_intra=0 / bframes=10 / b_pyramid=2 / b_adapt=2 / b_bias=0 / direct=3 / weightb=1 / open_gop=0 / weightp=2 / keyint=240 / keyint_min=23 / scenecut=40 / intra_refresh=0 / rc=2pass / mbtree=0 / bitrate=1637 / ratetol=1.0 / qcomp=0.60 / qpmin=0 / qpmax=69 / qpstep=4 / cplxblur=20.0 / qblur=0.5 / ip_ratio=1.40 / pb_ratio=1.30 / aq=1:1.00
Default : Да
Forced : Нет
Основные цвета : BT.709
Характеристики трансфера : BT.709
Коэффициенты матрицы : BT.709
Аудио
Идентификатор : 2
Формат : AC-3
Формат/Информация : Audio Coding 3
Расширение режима : CM (complete main)
Параметр Endianness формата : Big
Идентификатор кодека : A_AC3
Продолжительность : 1 ч. 40 м.
Вид битрейта : Постоянный
Битрейт : 384 Кбит/сек
Каналы : 6 каналов
Расположение каналов : Front: L C R, Side: L R, LFE
Частота : 48,0 КГц
Битовая глубина : 16 бит
Метод сжатия : С потерями
Размер потока : 275 Мбайт (19%)
Заголовок : R5
Язык : Russian
Default : Да
Forced : Нет
Текст
Идентификатор : 3
Формат : UTF-8
Идентификатор кодека : S_TEXT/UTF8
Идентификатор кодека/Информация : UTF-8 Plain Text
Язык : English
Default : Нет
Forced : Нет
Меню #1
00:00:00.000 : en:Chapter 01
00:07:32.535 : en:Chapter 02
00:14:16.564 : en:Chapter 03
00:22:52.829 : en:Chapter 04
00:34:34.614 : en:Chapter 05
00:43:36.447 : en:Chapter 06
00:53:14.149 : en:Chapter 07
01:00:23.703 : en:Chapter 08
01:10:18.214 : en:Chapter 09
01:18:35.961 : en:Chapter 10
01:26:37.859 : en:Chapter 11
01:34:38.464 : en:Chapter 12
Меню #2
00:00:00.000 : en:00:00:00.000
00:07:32.535 : en:00:07:32.535
00:14:16.564 : en:00:14:16.564
00:22:52.830 : en:00:22:52.830
00:34:34.698 : en:00:34:34.698
00:43:36.614 : en:00:43:36.614
00:53:14.233 : en:00:53:14.233
01:00:23.787 : en:01:00:23.787
01:10:18.381 : en:01:10:18.381
01:18:36.128 : en:01:18:36.128
01:26:38.026 : en:01:26:38.026
01:34:38.464 : en:01:34:38.464



Релиз от:
Rip by: Vovan366


_________________



реклама партнёра


Вернуться к началу
 Профиль Отправить личное сообщение  
 
   Похожие торренты   Автор   Торрент   Размер 
В этой теме нет новых непрочитанных сообщений. Детсадовский полицейский 2 / Kindergarten Cop 2 [комедия, 2016] HDRip, Dub [Лицензия]

salma3

4496 | 126

1.46 ГБ

В этой теме нет новых непрочитанных сообщений. Детсадовский полицейский 2 / Kindergarten Cop 2 [комедия, 2016] BDRip-AVC, Dub

salma3

315 | 8

2.18 ГБ

В этой теме нет новых непрочитанных сообщений. Детсадовский полицейский 2 / Kindergarten Cop 2 [Комедия, 2016] BDRemux 1080p, Dub [Лицензия]

salma3

185 | 23

21.1 ГБ

В этой теме нет новых непрочитанных сообщений. Детсадовский полицейский / Kindergarten Cop [боевик, комедия, криминал, 1990] BDRip, Mvo

salma3

25 | 1

1.46 ГБ

В этой теме нет новых непрочитанных сообщений. Детсадовский полицейский / Kindergarten Cop [Боевик, триллер, комедия, 1990] BDRip 720p, 2Dvo+6Mvo+3Avo+Sub

salma3

1 | 2

13.95 ГБ

В этой теме нет новых непрочитанных сообщений. Детсадовский полицейский / Kindergarten Cop [Боевик, триллер, комедия, 1990] BDRip 720p, 2Dvo+6Mvo+3Avo+Sub

salma3

9 | 3

10.9 ГБ

В этой теме нет новых непрочитанных сообщений. Космический полицейский / Space Cop [фантастика, боевик, комедия, 2016] BDRip 720p, Dvo

salma3

922 | 150

4.27 ГБ


Начать новую тему Ответить на тему  [ 1 сообщение ] 




Для Мосгорсуда, Роскомнадзора и рекламодателей:: mosgorsud-torrent[собачка]yandex.ru