Торрент файл
скачать торрент магнет ссылка Добавлен: 21 май 2016, 20:35
Размер: 1.37 ГБ
Сидеров: 360
Личеров: 19
Статус: (salma3)
Автор

СообщениеДобавлено: 21 май 2016, 20:35 

Не в сети
Супермодератор
Аватара пользователя
Дата регистрации:
15 фев 2012, 16:44
Возраст: 27
Спасибо: 5135 / 2089
Сообщения: 17406
Страна:США
Год выпуска: 2013
Жанр: фантастика, триллер, драма
Продолжительность: 01:20:28
Режиссер: Келли Шварце

В ролях: Майкл А. Ташос, Хеунг Вонг, Стью Чайкин, Колин Уорд, Кори Тейлор, Майкл О’Нил, Уилл Эдвардс

Описание: На военном заводе в пустыне Мохаве ведутся секретные испытания. Команда ученых создает опасное химическое оружие — вещество под названием Белый агент. Исследования проходят довольно успешно, но руководство так не считает. Глава секретной лаборатории подстраивает аварию, чтобы испытать оружие на людях, которые проживают недалеко от завода. Военные устанавливают карантинную зону, из которой у местного населения нет шанса выбраться...



Перевод: Профессиональный (многоголосый, закадровый) | официальный звук
Субтитры: нет


Качество: HDRip
Формат: АVI
Видео кодек: XviD
Аудио кодек: АС3
Видео: 720x400 (16:9), 23.976 fps, XviD ~1 988 kbps avg, 0.288 bits/рixel
Аудио №1: 48.0 kHz, AC3 Dolby Digital, 2/0 (L,R) ch, ~224 kbps | RUS
Аудио №2: 48.0 kHz, AC3 Dolby Digital, 2/0 (L,R) ch, ~224 kbps | ENG
Дата премьеры (мир): 1 мая 2013



General
Format : AVI
Format/Info : Audio Video Interleave
Overall bit rate : 2 452 Kbps
Writing application : VirtualDubMod 1.5.10.2 (build 2540/release)
Writing library : VirtualDubMod build 2540/release
Video
ID : 0
Format : MPEG-4 Visual
Format profile : Advanced Simple@L5
Format settings, BVOP : 2
Format settings, QPel : No
Format settings, GMC : No warppoints
Format settings, Matrix : Default (MPEG)
Codec ID : XVID
Codec ID/Hint : XviD
Bit rate : 1 988 Kbps
Width : 720 pixels
Height : 400 pixels
Display aspect ratio : 16:9
Frame rate : 23.976 fps
Color space : YUV
Chroma subsampling : 4:2:0
Bit depth : 8 bits
Scan type : Progressive
Compression mode : Lossy
Bits/(Pixel*Frame) : 0.288
Stream size : 13.9 MiB (81%)
Writing library : XviD 1.2.1 (UTC 2008-12-04)
Audio #1
ID : 1
Format : AC-3
Format/Info : Audio Coding 3
Mode extension : CM (complete main)
Format settings, Endianness : Big
Codec ID : 2000
Bit rate mode : Constant
Bit rate : 224 Kbps
Channel(s) : 2 channels
Channel positions : Front: L R
Sampling rate : 48.0 KHz
Compression mode : Lossy
Delay relative to video : 30ms
Stream size : 1.57 MiB (9%)
Alignment : Split accross interleaves
Interleave, duration : 42 ms (1.01 video frame)
Interleave, preload duration : 500 ms
Audio #2
ID : 2
Format : AC-3
Format/Info : Audio Coding 3
Mode extension : CM (complete main)
Format settings, Endianness : Big
Codec ID : 2000
Bit rate mode : Constant
Bit rate : 224 Kbps
Channel(s) : 2 channels
Channel positions : Front: L R
Sampling rate : 48.0 KHz
Compression mode : Lossy
Delay relative to video : 30ms
Stream size : 1.57 MiB (9%)
Alignment : Split accross interleaves
Interleave, duration : 42 ms (1.01 video frame)
Interleave, preload duration : 500 ms


_________________



реклама партнёра


Вернуться к началу
 Профиль Отправить личное сообщение  
 
   Похожие торренты   Автор   Торрент   Размер 
В этой теме нет новых непрочитанных сообщений. В осаде 2: Тёмная Территория / Захват 2: Территория Тьмы / Under Siege 2: Dark Territory [боевик, 1995] HDRip, Mvo

salma3

150 | 3

1.45 ГБ

В этой теме нет новых непрочитанных сообщений. Территория Оклахомы / Oklahoma Territory [Вестерн, 1960] HDTV 1080i, Dvo

salma3

15 | 1

3.2 ГБ

В этой теме нет новых непрочитанных сообщений. Территория Оклахомы / Oklahoma Territory [Вестерн, 1960] HDTVRip 720p, Dvo

salma3

44 | 9

1.72 ГБ

В этой теме нет новых непрочитанных сообщений. Территория Джа [+клип+фильм о фильме] (Алексей Пантелеев) [Комедия, Фантастика, Фэнтези, 2015] HDRip 1080p [релиз от автора]

Dracon

176 | 53

8.15 ГБ

В этой теме нет новых непрочитанных сообщений. Последние часы / These Final Hours [Фантастика, триллер, драма, 2013] HDRip, Mvo

Dracon

3066 | 143

1.37 ГБ

В этой теме нет новых непрочитанных сообщений. Побудь в моей шкуре / Under the Skin [фантастика, триллер, драма, 2013] HDRip, Mvo

Dracon

788 | 30

1.37 ГБ

В этой теме нет новых непрочитанных сообщений. День вторжения / Dragon Day / Invasion Day [фантастика, триллер, драма, 2013] HDRip, Mvo

salma3

647 | 17

1.46 ГБ


Начать новую тему Ответить на тему  [ 1 сообщение ] 




Для Мосгорсуда, Роскомнадзора и рекламодателей:: mosgorsud-torrent[собачка]yandex.ru