Торрент файл
скачать торрент магнет ссылка Добавлен: 20 май 2016, 11:06
Размер: 1.37 ГБ
Сидеров: 1789
Личеров: 99
Статус: (salma3)
Автор

СообщениеДобавлено: 20 май 2016, 11:06 

В сети
Супермодератор
Аватара пользователя
Дата регистрации:
15 фев 2012, 16:44
Возраст: 27
Спасибо: 5121 / 2089
Сообщения: 17292
Большой Босс / The Boss
Страна: США
Производство: Universal Pictures, On the Day, Gary Sanchez Productions
Год выпуска: 2016
Жанр: комедия
Продолжительность: 01:34:48
Режиссер: Бен Фэлкоун
Авторы сценария: Бен Фэлкоун, Стив Мэллори, Мелисса МакКарти
Продюсеры: Уилл Феррелл, Адам МакКей, Элизабет Коэн
В ролях: Мелисса МакКарти, Кристен Белл, Питер Динклэйдж, Элла Андерсон, Тайлер Лабин, Кэти Бейтс, Сесили Стронг, Мэри Сон
Описание: В центре сюжета бизнес-леди, промышленный магнат, очутившаяся в тюрьме, погорев на теневых сделках. Отсидев положенное, женщина мечтает искупить вину и сменить статус мошенницы на всеобщую любимицу, только не все жертвы ее махинаций готовы пересмотреть свое отношение к ней...



Перевод: Любительский (многоголосый, закадровый)
Субтитры: корейские (вшитые)

Качество: WEBRip
Формат: АVI
Видео кодек: XviD
Аудио кодек: АС3
Видео: 720x400 (16:9), 25.000 fps, XviD ~1 411 kbps avg, 0.196 bit/pixel
Аудио: 48.0 kHz, AC3 Dolby Digital, 2/0 (L,R) ch, ~192 kbps
Дата премьеры (мир): 21 марта 2016
ПРИМЕЧАНИЕ: ПРИСУТСТВУЕТ РЕКЛАМА!
General
Format : AVI
Format/Info : Audio Video Interleave
Overall bit rate : 1 614 Kbps
Movie name : B0ss.2O16.P.WEBRip.1400MB
Writing application : VirtualDubMod 1.5.10.3 | (build 2550/release)
Writing library : VirtualDubMod build 2550/release
Copyright : MoreFilms
Video
ID : 0
Format : MPEG-4 Visual
Format profile : Advanced Simple@L5
Format settings, BVOP : 2
Format settings, QPel : No
Format settings, GMC : No warppoints
Format settings, Matrix : Custom
Codec ID : XVID
Codec ID/Hint : XviD
Bit rate : 1 411 Kbps
Width : 720 pixels
Height : 400 pixels
Display aspect ratio : 16:9
Frame rate : 25.000 fps
Color space : YUV
Chroma subsampling : 4:2:0
Bit depth : 8 bits
Scan type : Progressive
Compression mode : Lossy
Bits/(Pixel*Frame) : 0.196
Stream size : 14.5 MiB (87%)
Writing library : XviD 1.2.1 (UTC 2008-12-04)
Audio
ID : 1
Format : AC-3
Format/Info : Audio Coding 3
Mode extension : CM (complete main)
Format settings, Endianness : Big
Codec ID : 2000
Bit rate mode : Constant
Bit rate : 192 Kbps
Channel(s) : 2 channels
Channel positions : Front: L R
Sampling rate : 48.0 KHz
Compression mode : Lossy
Stream size : 1.97 MiB (12%)
Alignment : Split accross interleaves
Interleave, duration : 40 ms (1.01 video frame)
Interleave, preload duration : 500 ms



_________________



реклама партнёра


Вернуться к началу
 Профиль Отправить личное сообщение  
 
   Похожие торренты   Автор   Торрент   Размер 
В этой теме нет новых непрочитанных сообщений. Большой Босс / The Boss [комедия, 2016] HDRip, Dub

salma3

288 | 19

1.46 ГБ

В этой теме нет новых непрочитанных сообщений. Недооформлен Большой Босс / The Boss ( комедия, 2016) BDRip-AVC от HELLYWOOD | Лицензия Данный торрент является блокированным, причина: недооформленный торрент

marya111

0 | 0

2.18 ГБ

В этой теме нет новых непрочитанных сообщений. Большой Босс / The Boss [комедия, 2016] BDRip-AVC, Dub [Лицензия] [Театральная версия]

marya111

50 | 13

746.09 МБ

В этой теме нет новых непрочитанных сообщений. Босс / Boss [боевик, драма, комедия, 2013] DVDRip, Mvo+Sub

salma3

149 | 11

2.2 ГБ

В этой теме нет новых непрочитанных сообщений. Босс в гостиной / Un boss in salotto [Комедия, 2014] HDRip, Mvo

salma3

23 | 7

1.46 ГБ

В этой теме нет новых непрочитанных сообщений. Big Tits Boss 25 / Босс С Большими Сиськами 25 (Reality Kings) (Savana Ginger, Brooklyn Chase, Rainia Belle, Natasha Juja, Gianna Capone) [2014 г., All Sex, Oral, Big Boobs, Gonzo, Office, WEB-DL 432p] Split Scenes

friizze

7 | 5

1.78 ГБ

В этой теме нет новых непрочитанных сообщений. Taylor Sands / Young Babysitter Sodomized by Boss (2016) SiteRip

Dile-1

29 | 8

306.7 МБ


Начать новую тему Ответить на тему  [ 1 сообщение ] 




Для Мосгорсуда, Роскомнадзора и рекламодателей:: mosgorsud-torrent[собачка]yandex.ru