Торрент файл
скачать торрент магнет ссылка Добавлен: 18 май 2016, 11:33
Размер: 1.36 ГБ
Сидеров: 3325
Личеров: 121
Статус: (salma3)
Автор

СообщениеДобавлено: 18 май 2016, 11:33 

Не в сети
Супермодератор
Аватара пользователя
Дата регистрации:
15 фев 2012, 16:44
Возраст: 27
Спасибо: 5139 / 2089
Сообщения: 17425
Страна:[/color] Германия
Производство: Seven Pictures, Wiedemann & Berg Filmproduktion
Год выпуска: 2016
Жанр: триллер
Продолжительность: 01:26:57
Режиссер: Симон Ферхоэвен

В ролях: Алисия Дебнем-Кери, Уильям Моусли, Коннор Паоло, Бритт Морган, Брук Маркам, Шон Маркетт, Лизль Алерс, Шэшони Холл

Описание: Вас добавляет в друзья одноклассник, однокурсник или коллега с работы, с которым вы практически никогда не общались, и начинает буквально атаковать вас сообщениями, почему-то решив, что вы с ним лучшие друзья. Знакомая ситуация? В подобную попадает Лора — главная героиня леденящего кровь триллера «Запрос в друзья». Решение удалить из френд-листа навязчивую и странноватую однокурсницу приведет к таким последствиям, которые не смогли бы предугадать даже самые большие любители хорроров...



Перевод:[/color] Профессиональный (многоголосый, закадровый)

Качество: DVB
Формат: АVI
Видео кодек: mpg2
Аудио кодек: МР3
Видео: 1024@720x576 (16:9), 25.000 fps, mpg2 ~2 094 kbps avg, 0.202 bit/pixel
Аудио: 44.1 kHz, MPEG Layer 3, 2 ch, ~128.00 kbps avg
Дата премьеры (мир): 7 января 2016
Дата премьеры (РФ): 17 марта 2016, «Люксор»
General
Format : AVI
Format/Info : Audio Video Interleave
Format profile : OpenDML
File size : 1.36 GiB
Duration : 1h 26mn
Overall bit rate mode : Variable
Overall bit rate : 2 236 Kbps
Writing application : Lavf56.1.100
Video
ID : 1
Format : MPEG Video
Format version : Version 2
Format profile : Main@Main
Format settings, BVOP : No
Format settings, Matrix : Default
Format settings, GOP : N=12
Codec ID : mpg2
Codec ID/Info : (MPEG-1/2) FFmpeg
Codec ID/Hint : Ffmpeg
Duration : 1h 26mn
Bit rate mode : Variable
Bit rate : 2 094 Kbps
Width : 720 pixels
Height : 576 pixels
Display aspect ratio : 16:9
Frame rate : 25.000 fps
Standard : PAL
Color space : YUV
Chroma subsampling : 4:2:0
Bit depth : 8 bits
Scan type : Progressive
Compression mode : Lossy
Bits/(Pixel*Frame) : 0.202
Stream size : 1.27 GiB (94%)
Audio
ID : 0
Format : MPEG Audio
Format version : Version 1
Format profile : Layer 3
Mode : Joint stereo
Mode extension : MS Stereo
Codec ID : 55
Codec ID/Hint : MP3
Duration : 1h 26mn
Bit rate mode : Constant
Bit rate : 128 Kbps
Channel(s) : 2 channels
Sampling rate : 44.1 KHz
Compression mode : Lossy
Stream size : 79.6 MiB (6%)
Alignment : Aligned on interleaves
Interleave, duration : 40 ms (1.00 video frame)
Writing library : LAME3.99.5



_________________



реклама партнёра


Вернуться к началу
 Профиль Отправить личное сообщение  
 
   Похожие торренты   Автор   Торрент   Размер 
В этой теме нет новых непрочитанных сообщений. Запрос в друзья / Friend Request [триллер, 2016] SATRip, Dub

salma3

3665 | 198

1.36 ГБ

В этой теме нет новых непрочитанных сообщений. Запрос в друзья / Friend Request [Ужасы, триллер, 2016] BDRip 1080p, Dub [iTunes]

salma3

95 | 19

7.71 ГБ

В этой теме нет новых непрочитанных сообщений. Friend? - Friend? [EP] [01.04.2011, Math-Rock, Post-Rock, MP3]

PriZraK

0 | 1

38.88 МБ

В этой теме нет новых непрочитанных сообщений. Близкие друзья / Друзья / Dostana [комедия, мелодрама, 2008] HDRip, Mvo [Red Media]

salma3

13 | 4

1.46 ГБ

В этой теме нет новых непрочитанных сообщений. [MommyGotBoobs.com / Brazzers.com] Leigh Darby (Bathing Your Friend's Dirty Mama / 28.02.16) [2016 г., MILF,Huge Tits,Blonde,Mom,Feet,Cougar,Big Tits Worship]

killerslava

8 | 4

636.14 МБ

В этой теме нет новых непрочитанных сообщений. Lucifer's Friend - Lucifer's Friend [1990, Hard Rock, Progressive Rock, MP3]

PriZraK

0 | 1

140.89 МБ

В этой теме нет новых непрочитанных сообщений. Моя самая лучшая подруга / My Very Best Friend [Триллер, Детектив, 1996] SATRip, Mvo

salma3

2 | 2

1.37 ГБ


Начать новую тему Ответить на тему  [ 1 сообщение ] 




Для Мосгорсуда, Роскомнадзора и рекламодателей:: mosgorsud-torrent[собачка]yandex.ru