Торрент файл
скачать торрент магнет ссылка Добавлен: 13 май 2016, 12:12
Размер: 2.76 ГБ
Сидеров: 59
Личеров: 7
Статус: (salma3)
Автор

СообщениеДобавлено: 13 май 2016, 12:12 

Не в сети
Супермодератор
Аватара пользователя
Дата регистрации:
15 фев 2012, 16:44
Возраст: 27
Спасибо: 5130 / 2089
Сообщения: 17365
Год выхода: 2016
Жанр: Драма, музыка
Режиссер: Сет Манн

В ролях: Эфтон Уильямсон, Тристан Уайлдс, Антуан Харрис, Дэвид Колл, Вуд Харрис, Дж. Бернард Кэллоуэй, Уильям Джексон Харпер, Энн Маркли, Де’Адре Азиза

О фильме: Это хроника истории трех друзей, Никки, Дэвида и Диви, их любви к хип-хопу и их попыток оставить свой след в музыкальной индустрии. Фильм отправит зрителя в лето 1990 года в Нью-Йорке, где артисты и хастлеры музыкальной индустрии взаимодействуют друг с другом в клубах и на улицах, все еще управляемых криминалом города.



Страна: США
Продолжительность: 1:35:47
Перевод: Любительский двухголосый (Papalam Recordings)



Файл
Качество: HDTV 1080p
Видео: AVC, 1920x1080 (16:9), 23.976 fps, 3 996 Kbps (0.080 bit/pixel)
Аудио: AAC LC, 48.0 KHz, 2 ch, 128 Kbps, CBR (English)
Формат : MPEG-4
Профиль формата : Base Media / Version 2
Идентификатор кодека : mp42
Размер файла : 2,76 Гбайт
Продолжительность : 1 ч. 35 м.
Режим общего битрейта : Переменный
Общий поток : 4130 Кбит/сек
Дата кодирования : UTC 2016-05-06 03:03:36
Дата пометки : UTC 2016-05-06 03:03:36
stik :
iTunMOVI : studiostudiocastnamedirectorsnameproducersnamecodirectorsnamecodirectorscreenwritersname
Видео
Идентификатор : 1
Формат : AVC
Формат/Информация : Advanced Video Codec
Профиль формата : Main@L4.1
Параметр CABAC формата : Да
Параметр ReFrames формата : 2 кадра
Параметр GOP формата : M=3, N=25
Режим смешивания : Container profile=Baseline@3.0
Идентификатор кодека : avc1
Идентификатор кодека/Информация : Advanced Video Coding
Продолжительность : 1 ч. 35 м.
Вид битрейта : Переменный
Битрейт : 3996 Кбит/сек
Максимальный битрейт : 6000 Кбит/сек
Ширина : 1920 пикселей
Высота : 1080 пикселей
Соотношение сторон : 16:9
Режим частоты кадров : Постоянный
Частота кадров : 23,976 кадра/сек
Цветовое пространство : YUV
Субдискретизация насыщенности : 4:2:0
Битовая глубина : 8 бит
Тип развёртки : Прогрессивная
Бит/(Пиксели*Кадры) : 0.080
Размер потока : 2,67 Гбайт (97%)
Язык : English
Аудио
Идентификатор : 2
Формат : AAC
Формат/Информация : Advanced Audio Codec
Профиль формата : LC
Идентификатор кодека : 40
Продолжительность : 1 ч. 35 м.
Вид битрейта : Постоянный
Битрейт : 128 Кбит/сек
Каналы : 2 канала
Расположение каналов : Front: L R
Частота : 48,0 КГц
Метод сжатия : С потерями
Размер потока : 87,5 Мбайт (3%)
Язык : English


_________________



реклама партнёра


Вернуться к началу
 Профиль Отправить личное сообщение  
 
   Похожие торренты   Автор   Торрент   Размер 
В этой теме нет новых непрочитанных сообщений. Винил [01 сезон: 01 серия из 10] [драма, музыка, 2016] HDTVRip 1080p [Amedia]

Dracon

73 | 2

4.65 ГБ

В этой теме нет новых непрочитанных сообщений. Всё тайное становится явным / When the Bough Breaks [ужасы, триллер, драма, детектив, 2016] TS, mvo

marya111

659 | 66

1.37 ГБ

В этой теме нет новых непрочитанных сообщений. Сборник - Жми на GAZZZ. Музыка в машину [2014, Deep, House, Breaks, Trap, Drum & Bass, DubStep, Trance, MP3]

Nickolas3435

755 | 124

1 ГБ

В этой теме нет новых непрочитанных сообщений. Лапочка 3 / Honey 3: Dare to Dance [семейный, музыка, мелодрама, 2016] BDRip 1080p, Dub [Лицензия]

salma3

115 | 32

7.89 ГБ

В этой теме нет новых непрочитанных сообщений. Субботним Вечером в Прямом Эфире / Saturday Night Live [42x01-03, 05] (комедия, пародия, музыка, 2016) WEBRip 1080p | Sub

marya111

24 | 22

8.3 ГБ

В этой теме нет новых непрочитанных сообщений. Субботним Вечером в Прямом Эфире / Saturday Night Live [42x01-03] (комедия, пародия, музыка, 2016) WEBRip 1080p | Sub

marya111

0 | 0

6.16 ГБ

В этой теме нет новых непрочитанных сообщений. Тайная жизнь домашних животных / The Secret Life of Pets [мультфильм, комедия, семейный, 2016] HDTV 1080p, Dub [Чистый звук]

salma3

2249 | 400

8.37 ГБ


Начать новую тему Ответить на тему  [ 1 сообщение ] 




Для Мосгорсуда, Роскомнадзора и рекламодателей:: mosgorsud-torrent[собачка]yandex.ru