Торрент файл
скачать торрент магнет ссылка Добавлен: 13 май 2016, 12:02
Размер: 2.18 ГБ
Сидеров: 54
Личеров: 4
Статус: (salma3)
Автор

СообщениеДобавлено: 13 май 2016, 12:02 

Не в сети
Супермодератор
Аватара пользователя
Дата регистрации:
15 фев 2012, 16:44
Возраст: 27
Спасибо: 5139 / 2089
Сообщения: 17411
Год выхода: 2001
Жанр: комедия, приключения
Режиссер: Саймон Уинсер

В ролях: Пол Хоган, Линда Козловски, Джер Бернс, Джонатан Бэнкс, Алек Уилсон, Джерри Скилтон, Стив Рэкмен, Серж Кокберн, Аида Туртурро, Пол Родригес

О фильме:
Вы готовы к возвращению Крокодила Данди?
В третьей части этого безумно популярного фильма Мик Данди, следуя за своей подругой, журналисткой Сью Чарльстон, переселяется из деревенской глуши Австралии в модный и суетливый Лос-Анджелес. Сью возглавляет лос-анжелесский офис газеты своего отца и пытается выяснить причины гибели одного из лучших журналистов. Данди, которому надоело беспрерывно попадать в глупые и комичные ситуации, включается в журналистское расследование Сью…



Страна: Австралия, США
Продолжительность: 01:30:47
Перевод:
1. Профессиональный (дублированный)
2. Профессиональный (многоголосый закадровый) ТК Россия
3. Авторский (одноголосый закадровый) Ю.Живов
Файл
Кодек: AVC
Качество: DVDRip-AVC
Видео: 720x568@1024x568, 2667 kbps, 25 fps, 0,261 Bits/(Pixel*Frame)
Звук:
1. AC3, 48 kHz, 6 ch, 384 fps - RUS [DUB]
2. AC3, 48 kHz, 2 ch, 192 fps - RUS [MVO]
3. AC3, 48 kHz, 2 ch, 192 fps - RUS [AVO]
Субтитры: русские
General
Unique ID : 183694545430236924303845409799788928610 (0x8A32485646B15985B5A9472ADAE99E62)
Complete name : F:Crocodile.Dundee.In.Los.Angeles.2001.DVDRip_by_Bathory.mkv
Format : Matroska
Format version : Version 4 / Version 2
File size : 2.18 GiB
Duration : 1h 30mn
Overall bit rate : 3 435 Kbps
Encoded date : UTC 2016-05-10 23:47:18
Writing application : mkvmerge v8.6.1 ('Flying') 64bit
Writing library : libebml v1.3.3 + libmatroska v1.4.4
DURATION : 01:25:49.037000000
NUMBER_OF_FRAMES : 757
NUMBER_OF_BYTES : 65222
_STATISTICS_WRITING_APP : mkvmerge v8.6.1 ('Flying') 64bit
_STATISTICS_WRITING_DATE_UTC : 2016-05-10 23:47:18
_STATISTICS_TAGS : BPS DURATION NUMBER_OF_FRAMES NUMBER_OF_BYTES
Video
ID : 1
Format : AVC
Format/Info : Advanced Video Codec
Format profile : High@L4.1
Format settings, CABAC : Yes
Format settings, ReFrames : 12 frames
Codec ID : V_MPEG4/ISO/AVC
Duration : 1h 30mn
Bit rate : 2 667 Kbps
Width : 720 pixels
Height : 568 pixels
Display aspect ratio : 16:9
Frame rate mode : Constant
Frame rate : 25.000 fps
Color space : YUV
Chroma subsampling : 4:2:0
Bit depth : 8 bits
Scan type : Progressive
Bits/(Pixel*Frame) : 0.261
Stream size : 1.65 GiB (76%)
Writing library : x264 core 148 r2692 64f4e24
Encoding settings : cabac=1 / ref=12 / deblock=1:-2:-2 / analyse=0x3:0x133 / me=umh / subme=11 / psy=1 / psy_rd=1.10:0.10 / mixed_ref=1 / me_range=32 / chroma_me=1 / trellis=2 / 8x8dct=1 / cqm=0 / deadzone=21,11 / fast_pskip=0 / chroma_qp_offset=-3 / threads=12 / lookahead_threads=3 / sliced_threads=0 / nr=0 / decimate=0 / interlaced=0 / bluray_compat=0 / constrained_intra=0 / bframes=16 / b_pyramid=2 / b_adapt=2 / b_bias=0 / direct=3 / weightb=1 / open_gop=0 / weightp=2 / keyint=250 / keyint_min=25 / scenecut=0 / intra_refresh=0 / rc_lookahead=60 / rc=2pass / mbtree=1 / bitrate=2667 / ratetol=1.0 / qcomp=0.70 / qpmin=0 / qpmax=69 / qpstep=4 / cplxblur=15.0 / qblur=0.5 / vbv_maxrate=50000 / vbv_bufsize=62500 / nal_hrd=none / filler=0 / ip_ratio=1.40 / aq=2:1.00
Default : Yes
Forced : No
Audio #1
ID : 2
Format : AC-3
Format/Info : Audio Coding 3
Mode extension : CM (complete main)
Format settings, Endianness : Big
Codec ID : A_AC3
Duration : 1h 30mn
Bit rate mode : Constant
Bit rate : 384 Kbps
Channel(s) : 6 channels
Channel positions : Front: L C R, Side: L R, LFE
Sampling rate : 48.0 KHz
Bit depth : 16 bits
Compression mode : Lossy
Stream size : 249 MiB (11%)
Title : DUB
Language : Russian
Default : Yes
Forced : No
Audio #2
ID : 3
Format : AC-3
Format/Info : Audio Coding 3
Mode extension : CM (complete main)
Format settings, Endianness : Big
Codec ID : A_AC3
Duration : 1h 30mn
Bit rate mode : Constant
Bit rate : 192 Kbps
Channel(s) : 2 channels
Channel positions : Front: L R
Sampling rate : 48.0 KHz
Bit depth : 16 bits
Compression mode : Lossy
Stream size : 125 MiB (6%)
Title : MVO (ТК Россия)
Language : Russian
Default : No
Forced : No
Audio #3
ID : 4
Format : AC-3
Format/Info : Audio Coding 3
Mode extension : CM (complete main)
Format settings, Endianness : Big
Codec ID : A_AC3
Duration : 1h 30mn
Bit rate mode : Constant
Bit rate : 192 Kbps
Channel(s) : 2 channels
Channel positions : Front: L R
Sampling rate : 48.0 KHz
Bit depth : 16 bits
Compression mode : Lossy
Stream size : 125 MiB (6%)
Title : AVO (Живов)
Language : Russian
Default : No
Forced : No
Text
ID : 5
Format : UTF-8
Codec ID : S_TEXT/UTF8
Codec ID/Info : UTF-8 Plain Text
Language : Russian
Default : No
Forced : No

Релиз от: Автор рипа: _Bathory_


_________________



реклама партнёра


Вернуться к началу
 Профиль Отправить личное сообщение  
 
   Похожие торренты   Автор   Торрент   Размер 
В этой теме нет новых непрочитанных сообщений. Крокодил Данди 2 / Crocodile Dundee II [Боевик, комедия, приключения, 1988] BDRip 1080p, Dub+Mvo+Avo+Sub

salma3

18 | 6

12.13 ГБ

В этой теме нет новых непрочитанных сообщений. Крокодил Данди / Crocodile Dundee [Комедия, приключения, 1986] BDRip 720p, Dub+4Mvo+4Avo+Sub

salma3

41 | 6

4.98 ГБ

В этой теме нет новых непрочитанных сообщений. Крокодил / Crocodile [ужасы, триллер, 2000] DVDRip, Mvo

salma3

3 | 4

1.59 ГБ

В этой теме нет новых непрочитанных сообщений. Крокодил / Rogue [Ужасы, триллер, приключения, 2007] HDRip, Dvo

salma3

252 | 14

1.46 ГБ

В этой теме нет новых непрочитанных сообщений. Сделано в Лос-Анджелесе / L.A. Takedown [боевик, триллер, драма, криминал, 1989] DVDRip, Avo

salma3

47 | 7

706.41 МБ

В этой теме нет новых непрочитанных сообщений. Тайная крепость / La Forteresse suspendue [комедия, приключения, 2001] DVDRip, Mvo

salma3

23 | 2

1.43 ГБ

В этой теме нет новых непрочитанных сообщений. Приключения Джо Грязнули / Joe Dirt [Комедия, мелодрама, приключения, детектив, 2001] BDRip 1080p, Mvo

salma3

37 | 5

8.14 ГБ


Начать новую тему Ответить на тему  [ 1 сообщение ] 




Для Мосгорсуда, Роскомнадзора и рекламодателей:: mosgorsud-torrent[собачка]yandex.ru