Торрент файл
скачать торрент магнет ссылка Добавлен: 13 май 2016, 11:55
Размер: 1.46 ГБ
Сидеров: 657
Личеров: 47
Статус: (salma3)
Автор

СообщениеДобавлено: 13 май 2016, 11:55 

Не в сети
Супермодератор
Аватара пользователя
Дата регистрации:
15 фев 2012, 16:44
Возраст: 27
Спасибо: 5130 / 2089
Сообщения: 17350
Год выпуска: 2016
Страна: США
Жанр: драма, криминал

Перевод: Любительский одноголосый [datynet]
Продолжительность: 01:32:44

Режиссер: Питер Биллингсли

В ролях: Джон Фавро (Jimmy Lincoln), Хейли Стайнфелд (Cate Barrow), Джонатан Бэнкс (Harper), Тараджи П. Хенсон (Samantha Thurman), Винс Вон (Nick Barrow), Аннабет Гиш (Lucy), Билл Пэкстон (Detective Keenan), Терренс Ховард (Sheriff Braydon), Мануэль Рульфо (Pedro), Хорди Молья (Victor Fuentes), Майк Эппс (Darryl Mosley), Сесиль Де Франс (Lucy)



Описание:
Фильм рассказывает о персонаже по имени Ник Бэрроу, который планирует кражи, а потом продаёт эти проекты тому, кто больше заплатит. Но наступает чёрный день - один из замыслов Ника с треском проваливается, и теперь его смерти жаждут все, начиная с главарей мафии и заканчивая оборотнями в погонах.
Поняв, что от судьбы не убежишь, герой решает сделать напоследок что-то хорошее - он страхует жизнь на миллион долларов, чтобы после смерти обеспечить свою дочь. Не учитывает Ник только одного - страховка начнет действовать лишь через 21 день, в течение которых герою необходимо оставаться в живых. А это в его ситуации совсем не просто.




Качество: WEB-DLRip-AVC
Формат: MKV
Видео: AVC, 1024x426 (2.40:1), 1867 kbps, 23,976 fps, 0,179 bpp
Аудио: AC3 / 5.1 / 48 kHz / 384 kbps / 16 bit
Семпл


Релиз от: by White Smoke


General
Unique ID : 225908488628911800228249654257142223715 (0xA9F4646D63FFF333A869C7AD39B05363)
Complete name : C:GamesTerm.Life.2016.WEB-DLRip-AVC.by.White Smoke.R.G.Resident.mkv
Format : Matroska
Format version : Version 2
File size : 1.46 GiB
Duration : 1h 32mn
Overall bit rate : 2 251 Kbps
Encoded date : UTC 2016-05-12 13:03:20
Writing application : mkvmerge v7.8.0 ('River Man') 32bit built on Apr 3 2015 12:11:22
Writing library : libebml v1.3.1 + libmatroska v1.4.2
Video
ID : 1
Format : AVC
Format/Info : Advanced Video Codec
Format profile : High@L4.1
Format settings, CABAC : Yes
Format settings, ReFrames : 12 frames
Codec ID : V_MPEG4/ISO/AVC
Duration : 1h 32mn
Bit rate : 1 867 Kbps
Width : 1 024 pixels
Height : 426 pixels
Display aspect ratio : 2.40:1
Frame rate : 23.976 fps
Color space : YUV
Chroma subsampling : 4:2:0
Bit depth : 8 bits
Scan type : Progressive
Bits/(Pixel*Frame) : 0.179
Stream size : 1.18 GiB (81%)
Writing library : x264 core 146 r2538 121396c
Encoding settings : cabac=1 / ref=12 / deblock=1:-2:-2 / analyse=0x3:0x113 / me=umh / subme=9 / psy=1 / psy_rd=1.00:0.00 / mixed_ref=1 / me_range=32 / chroma_me=1 / trellis=2 / 8x8dct=1 / cqm=0 / deadzone=21,11 / fast_pskip=0 / chroma_qp_offset=-2 / threads=6 / lookahead_threads=1 / sliced_threads=0 / nr=0 / decimate=0 / interlaced=0 / bluray_compat=0 / constrained_intra=0 / bframes=10 / b_pyramid=2 / b_adapt=2 / b_bias=0 / direct=3 / weightb=1 / open_gop=0 / weightp=2 / keyint=250 / keyint_min=23 / scenecut=40 / intra_refresh=0 / rc_lookahead=60 / rc=2pass / mbtree=0 / bitrate=1867 / ratetol=1.0 / qcomp=0.60 / qpmin=0 / qpmax=69 / qpstep=4 / cplxblur=20.0 / qblur=0.5 / vbv_maxrate=14000 / vbv_bufsize=14000 / nal_hrd=none / filler=0 / ip_ratio=1.40 / pb_ratio=1.30 / aq=1:0.80
Default : Yes
Forced : No
Audio
ID : 2
Format : AC-3
Format/Info : Audio Coding 3
Mode extension : CM (complete main)
Codec ID : A_AC3
Duration : 1h 32mn
Bit rate mode : Constant
Bit rate : 384 Kbps
Channel(s) : 6 channels
Channel positions : Front: L C R, Side: L R, LFE
Sampling rate : 48.0 KHz
Bit depth : 16 bits
Compression mode : Lossy
Stream size : 255 MiB (17%)
Default : Yes
Forced : No


_________________



реклама партнёра


Вернуться к началу
 Профиль Отправить личное сообщение  
 
   Похожие торренты   Автор   Торрент   Размер 
В этой теме нет новых непрочитанных сообщений. Срок жизни / Term Life [драма, криминал, 2016] WEB-DLRip, Avo

salma3

2131 | 126

1.45 ГБ

В этой теме нет новых непрочитанных сообщений. Срок жизни / Term Life [Драма, криминал, 2016] BDRip 720p, Mvo

salma3

92 | 11

5.92 ГБ

В этой теме нет новых непрочитанных сообщений. Короткий срок 12 / Short Term 12 [драма, 2013] HDRip, Avo

salma3

549 | 25

1.37 ГБ

В этой теме нет новых непрочитанных сообщений. Короткий срок 12 / Short Term 12 [драма, 2013] BDRip 720p, Avo+Sub

Dracon

8 | 3

7.46 ГБ

В этой теме нет новых непрочитанных сообщений. Короткий срок 12 / Short Term 12 (Дестин Креттон / Destin Cretton) [2013г., драма, BDRip] Sub

Alfredovich

0 | 2

757.81 МБ

В этой теме нет новых непрочитанных сообщений. Девочки Гилмор: Год из жизни / Времена года / Gilmore Girls: A Year in the Life / 1 серия из 4 [комедия, мелодрама, семейный, 2016] WEB-DLRip, Mvo [NewStudio]

salma3

20 | 30

907.23 МБ

В этой теме нет новых непрочитанных сообщений. Это мы / This Is Us [01х01-02 из 13] (2016) WEB-DLRip от GeneralFilm | Fox Life

marya111

19 | 9

966.64 МБ


Начать новую тему Ответить на тему  [ 1 сообщение ] 




Для Мосгорсуда, Роскомнадзора и рекламодателей:: mosgorsud-torrent[собачка]yandex.ru