Торрент файл
скачать торрент магнет ссылка Добавлен: 06 май 2016, 20:33
Размер: 2.7 ГБ
Сидеров: 35
Личеров: 6
Статус: (salma3)
Автор

СообщениеДобавлено: 06 май 2016, 20:33 

Не в сети
Супермодератор
Аватара пользователя
Дата регистрации:
15 фев 2012, 16:44
Возраст: 27
Спасибо: 5140 / 2090
Сообщения: 17470
Год выхода: 1991
Страна: США
Продолжительность: 01:33:56
Жанр: боевик, приключения
Режиссер: Сэм Фёрстенберг

В ролях: Ник Кассаветис, Эрик Дуглас, Майк Норрис, Мэттью Пенн, Джон Райан, Хана Азулай-Хасафри, Грегори Таль, Марк Иванир, Дан Турджеман, ...

Перевод:
- Профессиональный (многоголосный, закадровый) РенТВ
- Авторский (одноголосый, закадровый) Живов Юрий Викторович
О фильме: В одном из городов Америки террорист, удерживая заложников, грозит привести в действие атомную бомбу. У президента США остается единственный шанс уничтожить фанатика и спасти людей от катастрофы — довериться подразделению Дельта.
Вместе с двумя офицерами русской разведки, один из которых — прелестная дама, начинается операция. Мир, затаив дыхание, следит за развитием событий. Часы неумолимо отсчитывают время до момента, когда террорист направится к пульту управления взрывным устройством…



Кодек: x264
Качество: DVDRip-AVC
Видео: 748x576 , 3500 kbps, 25 fps
Аудио #1: AC-3, 2 ch, 192 kbps (Rus) - MVO РенТВ
Аудио #2: AC-3, 2 ch, 192 kbps (Rus) - AVO Живов Юрий Викторович (VHS)
Аудио #3: AC-3, 2 ch, 224 kbps (Eng)
Субтитры: Нет

За исходник спасибо - dvdbox
x264 [info]: frame I:1124 Avg QP:19.47 size: 71833
x264 [info]: frame P:28908 Avg QP:21.88 size: 32281
x264 [info]: frame B:110877 Avg QP:24.16 size: 13094
x264 [info]: consecutive B-frames: 1.3% 1.5% 7.3% 19.5% 14.6% 47.0% 7.2% 0.8% 0.4% 0.2% 0.1% 0.1% 0.0%
Общее
Уникальный идентификатор : 178601429256786278848933221957530663419 (0x865D62528432B6629A3AD40EDA35B9FB)
Полное имя : Подразделение Дельта 3 Игра в убийство (Delta Force 3 The Killing Game) 1991 DVDRip.mkv
Формат : Matroska
Версия формата : Version 2
Размер файла : 2,70 Гбайт
Продолжительность : 1 ч. 33 м.
Общий поток : 4110 Кбит/сек
Дата кодирования : UTC 2016-05-06 02:33:36
Программа кодирования : mkvmerge v4.0.0 ('The Stars were mine') сборка от Jun 6 2010 16:18:42
Библиотека кодирования : libebml v1.0.0 + libmatroska v1.0.0
Видео
Идентификатор : 1
Формат : AVC
Формат/Информация : Advanced Video Codec
Профиль формата : High@L4.1
Параметр CABAC формата : Да
Параметр ReFrames формата : 12 кадров
Идентификатор кодека : V_MPEG4/ISO/AVC
Продолжительность : 1 ч. 33 м.
Битрейт : 3500 Кбит/сек
Ширина : 748 пикселей
Высота : 576 пикселей
Соотношение сторон : 1,299
Режим частоты кадров : Постоянный
Частота кадров : 25,000 кадров/сек
Цветовое пространство : YUV
Субдискретизация насыщенности : 4:2:0
Битовая глубина : 8 бит
Тип развёртки : Прогрессивная
Бит/(Пиксели*Кадры) : 0.325
Размер потока : 2,24 Гбайт (83%)
Библиотека кодирования : x264 core 146 r2538 121396c
Настройки программы : cabac=1 / ref=12 / deblock=1:-3:-3 / analyse=0x3:0x133 / me=umh / subme=11 / psy=1 / psy_rd=1.00:0.00 / mixed_ref=1 / me_range=32 / chroma_me=1 / trellis=2 / 8x8dct=1 / cqm=0 / deadzone=21,11 / fast_pskip=0 / chroma_qp_offset=-2 / threads=12 / lookahead_threads=2 / sliced_threads=0 / nr=0 / decimate=0 / interlaced=0 / bluray_compat=0 / constrained_intra=0 / bframes=12 / b_pyramid=2 / b_adapt=2 / b_bias=0 / direct=3 / weightb=1 / open_gop=0 / weightp=2 / keyint=250 / keyint_min=25 / scenecut=40 / intra_refresh=0 / rc=2pass / mbtree=0 / bitrate=3500 / ratetol=1.0 / qcomp=0.60 / qpmin=0 / qpmax=69 / qpstep=4 / cplxblur=20.0 / qblur=0.5 / ip_ratio=1.40 / pb_ratio=1.30 / aq=1:0.80
Язык : English
Default : Нет
Forced : Нет
Аудио #1
Идентификатор : 2
Формат : AC-3
Формат/Информация : Audio Coding 3
Расширение режима : CM (complete main)
Параметр Endianness формата : Big
Идентификатор кодека : A_AC3
Продолжительность : 1 ч. 33 м.
Вид битрейта : Постоянный
Битрейт : 192 Кбит/сек
Каналы : 2 канала
Расположение каналов : Front: L R
Частота : 48,0 КГц
Метод сжатия : С потерями
Размер потока : 129 Мбайт (5%)
Заголовок : MVO РенТВ
Язык : Russian
Default : Нет
Forced : Нет
Аудио #2
Идентификатор : 3
Формат : AC-3
Формат/Информация : Audio Coding 3
Расширение режима : CM (complete main)
Параметр Endianness формата : Big
Идентификатор кодека : A_AC3
Продолжительность : 1 ч. 33 м.
Вид битрейта : Постоянный
Битрейт : 192 Кбит/сек
Каналы : 2 канала
Расположение каналов : Front: L R
Частота : 48,0 КГц
Метод сжатия : С потерями
Размер потока : 129 Мбайт (5%)
Заголовок : AVO Живов Юрий Викторович (VHS)
Язык : Russian
Default : Нет
Forced : Нет
Аудио #3
Идентификатор : 4
Формат : AC-3
Формат/Информация : Audio Coding 3
Расширение режима : CM (complete main)
Параметр Endianness формата : Big
Идентификатор кодека : A_AC3
Продолжительность : 1 ч. 33 м.
Вид битрейта : Постоянный
Битрейт : 224 Кбит/сек
Каналы : 2 канала
Расположение каналов : Front: L R
Частота : 48,0 КГц
Метод сжатия : С потерями
Размер потока : 151 Мбайт (5%)
Язык : English
Default : Нет
Forced : Нет



_________________



реклама партнёра


Вернуться к началу
 Профиль Отправить личное сообщение  
 
   Похожие торренты   Автор   Торрент   Размер 
В этой теме нет новых непрочитанных сообщений. Операция отряда Дельта / Operation Delta Force [Боевик, 1997] DVDRip, Avo+Dvo

salma3

43 | 16

1.59 ГБ

В этой теме нет новых непрочитанных сообщений. Операция отряда Дельта 3 / Operation Delta Force 3: Clear Target [Боевик, 1998] DVDRip, Mvo+Dvo

salma3

0 | 3

1.56 ГБ

В этой теме нет новых непрочитанных сообщений. Отряд «Дельта» / The Delta Force [Боевик, триллер, драма, 1986] BDRip 1080p, Mvo+Avo

salma3

58 | 67

13.47 ГБ

В этой теме нет новых непрочитанных сообщений. Опасная игра / Real Playing Game [фантастика, боевик, приключения, 2013] DVDRip, avo

Dracon

0 | 2

1.37 ГБ

В этой теме нет новых непрочитанных сообщений. Операция «Дельта-фарс» / Delta Farce [Комедия, 2007] BDRip 720р, Dub

salma3

32 | 4

4.83 ГБ

В этой теме нет новых непрочитанных сообщений. Игра Эндера / Ender's Game [фантастика, боевик, приключения, 2013] WEB-DL 1080p, Dub [RED.1.0]

Dracon

72 | 7

4.24 ГБ

В этой теме нет новых непрочитанных сообщений. Большая игра / Big Game (Ялмари Хеландер) [Боевик, Приключения, 2014] HDRip, Dub [iTunes]

Dracon

289 | 10

1.37 ГБ


Начать новую тему Ответить на тему  [ 1 сообщение ] 




Для Мосгорсуда, Роскомнадзора и рекламодателей:: mosgorsud-torrent[собачка]yandex.ru