Торрент файл
скачать торрент магнет ссылка Добавлен: 04 май 2016, 22:14
Размер: 1.59 ГБ
Сидеров: 46
Личеров: 5
Статус: (salma3)
Автор

СообщениеДобавлено: 04 май 2016, 22:14 

В сети
Супермодератор
Аватара пользователя
Дата регистрации:
15 фев 2012, 16:44
Возраст: 27
Спасибо: 5139 / 2089
Сообщения: 17423
Год выхода: 1987
Жанр: триллер, драма, криминал, детектив
Режиссер: Фред Уолтон

В ролях: Дональд Сазерленд, Чарльз Дёрнинг, Роджер Анджелини, Анита Бэрон, Б. Констанс Бэрри, Белинда Бауэр, Дорис Биско, Сэнди Броад, Кит Брукс, Бетани Карпентер

Сюжет фильма:
В Детройте совершена серия жестоких убийств. Жертвами стали католические священники и монахини, в руках которых убийца оставляет черные чётки. А после в церкви исповедуется человек, который признаётся в убийствах, но священник Боб Кеслер, соблюдая тайну исповеди, не может сообщить об этом в полицию...



Страна: США
Продолжительность: 01:45:10
Перевод: Профессиональный (двухголосый, закадровый) | TB-6, авторский (одноголосый, закадровый) | Н. Севастьянов
Примечание: Есть две вставки из одноголосого перевода. Первые 8 минут - одноголосый перевод.

Файл
Формат: AVI
Качество: HDRip
Видео: XviD, 704x384, 23.976 fps, 1776 kbps
Аудио#1: Russian: 48 kHz, AC3, 2/0 (L,R) ch, ~192 kbps avg | TB-6 |
Аудио#2: Russian: 48 kHz, AC3, 2/0 (L,R) ch, ~192 kbps avg | Н. Севастьянов | (Отдельно)
Релиз:

Общее
Полное имя : The.Rosary.Murders.1987.HDRip.MegaPeerThe.Rosary.Murders.1987.HDRip.MegaPeer.avi
Формат : AVI
Формат/Информация : Audio Video Interleave
Размер файла : 1,45 Гбайт
Продолжительность : 1 ч. 45 м.
Общий поток : 1978 Кбит/сек
Программа кодирования : VirtualDubMod 1.5.10.3 | www.virtualdub-fr.org || (build 2550/release)
Библиотека кодирования : VirtualDubMod build 2550/release
Видео
Идентификатор : 0
Формат : MPEG-4 Visual
Профиль формата : Advanced Simple@L5
Параметр BVOP формата : 1
Параметр QPel формата : Нет
Параметр GMC формата : Без точки перехода
Параметр матрицы формата : Выборочная
Идентификатор кодека : XVID
Идентификатор кодека/Подсказка : XviD
Продолжительность : 1 ч. 45 м.
Битрейт : 1776 Кбит/сек
Ширина : 704 пикселя
Высота : 384 пикселя
Соотношение сторон : 1,85:1
Частота кадров : 23,976 (23976/1000) кадра/сек
Цветовое пространство : YUV
Субдискретизация насыщенности : 4:2:0
Битовая глубина : 8 бит
Тип развёртки : Прогрессивная
Метод сжатия : С потерями
Бит/(Пиксели*Кадры) : 0.274
Размер потока : 1,30 Гбайт (90%)
Библиотека кодирования : XviD 73
Аудио
Идентификатор : 1
Формат : AC-3
Формат/Информация : Audio Coding 3
Расширение режима : CM (complete main)
Параметр Endianness формата : Big
Идентификатор кодека : 2000
Продолжительность : 1 ч. 45 м.
Вид битрейта : Постоянный
Битрейт : 192 Кбит/сек
Каналы : 2 канала
Расположение каналов : Front: L R
Частота : 48,0 КГц
Частота кадров : 31,250 кадров/сек (1536 spf)
Метод сжатия : С потерями
Размер потока : 144 Мбайт (10%)
Выравнивание : Разделение по промежуткам
Продолжительность промежутка : 42 мс. (1,00 видеокадр)
Время предзагрузки промежутка : 500 мс.


_________________



реклама партнёра


Вернуться к началу
 Профиль Отправить личное сообщение  
 
   Похожие торренты   Автор   Торрент   Размер 
В этой теме нет новых непрочитанных сообщений. Убийства по чёткам / The Rosary Murders [триллер, драма, криминал, детектив, 1987] BDRip 720p, Dvo

salma3

23 | 39

8.47 ГБ

В этой теме нет новых непрочитанных сообщений. Убийства в Оксфорде / The Oxford Murders [Триллер, мелодрама, криминал, 2008] BDRip 1080р, Mvo

salma3

25 | 2

11.28 ГБ

В этой теме нет новых непрочитанных сообщений. Убийства фотомоделей / The Cover Girl Murders [Триллер, 1993] SATRip, Mvo

salma3

250 | 28

746.46 МБ

В этой теме нет новых непрочитанных сообщений. Речные убийства / The River Murders [Триллер, 2011] BDRemux 1080p, Avo

salma3

18 | 12

16.91 ГБ

В этой теме нет новых непрочитанных сообщений. Убийства на радио / Radioland Murders [мюзикл, драма, мелодрама, 1994] DVDRip, Mvo

salma3

9 | 1

1.36 ГБ

В этой теме нет новых непрочитанных сообщений. Убийства во Фьелльбакке 1: Тайное дитя / Fjällbackamorden: Tyskungen (Пер Ханефьорд / Per Hanefjord) [2013г., триллер, детектив, криминал, HDRip] DVO + VO + sub

Alfredovich

11 | 2

1.41 ГБ

В этой теме нет новых непрочитанных сообщений. Убийства во Фьелльбакке 6: В глазах смотрящего / Fjällbackamorden: I betraktarens öga / In the Eye of the Beholder (Йорген Бергмарк / Jörgen Bergmar) [2013г., Швеция, триллер, детектив, криминал, HDRip] VO

Alfredovich

32 | 16

1.45 ГБ


Начать новую тему Ответить на тему  [ 1 сообщение ] 




Для Мосгорсуда, Роскомнадзора и рекламодателей:: mosgorsud-torrent[собачка]yandex.ru