Торрент файл
скачать торрент магнет ссылка Добавлен: 01 май 2016, 14:04
Размер: 1.39 ГБ
Сидеров: 50
Личеров: 3
Статус: (salma3)
Автор

СообщениеДобавлено: 01 май 2016, 14:04 

Не в сети
Супермодератор
Аватара пользователя
Дата регистрации:
15 фев 2012, 16:44
Возраст: 27
Спасибо: 5139 / 2089
Сообщения: 17411
Перевод: Любительский (двухголосый), субтитры: отсутствуют
Формат: WEBDLRip, AVI, XviD, AC3
Страна: США
Режиссер: Абель Берри, Дженнифер Мишель Стоун II
Жанр: боевик
Продолжительность: 01:25:43
Год выпуска: 2016

В ролях: Паула Марченадо, Ник Гомес, Том Проктер, Билли Блэр, Шери Дэвис, Лэйси Эрнандес, Кэсси Ши Уотсон, Гай В Дж Мэйфилд, Аманда Мари, Натали Дикинсон

Описание: Фильм о страшной истории, которая сможет задеть даже самого бесстрашного. Иногда предметы могут изменить нашу жизнь. Часто люди кардинально меняются сами и думают, что это происходит с возрастом, но бывает такое, что их меняет именно то, что их окружает. А когда в игру вступают еще и люди, то финал такой истории может оказаться фатальным и не только для главных участников.



Видео: 720x384 (1.85:1), 23.976 fps, XviD MPEG-4, Simple@L5 ~ 2124 Kbps, 0.320 bit/pixel
Аудио: AC3, 48 kHz, 2.0 ch, 192 Kbps

Доп. информация: Релиз без рекламы.

General
Complete name : D:\torrent\Blood.Sombrero.2016.WEB-DLRip.avi
Format : AVI
Format/Info : Audio Video Interleave
File size : 1.39 GiB
Duration : 1h 25mn
Overall bit rate : 2 325 Kbps
Writing application : VirtualDubMod 1.5.10.3 | www.virtualdub-fr.org || (build 2550/release)
Writing library : VirtualDubMod build 2550/release

Video
ID : 0
Format : MPEG-4 Visual
Format profile : Advanced Simple@L5
Format settings, BVOP : 2
Format settings, QPel : No
Format settings, GMC : No warppoints
Format settings, Matrix : Default (H.263)
Codec ID : XVID
Codec ID/Hint : XviD
Duration : 1h 25mn
Bit rate : 2 124 Kbps
Width : 720 pixels
Height : 384 pixels
Display aspect ratio : 1.85:1
Frame rate : 23.976 fps
Color space : YUV
Chroma subsampling : 4:2:0
Bit depth : 8 bits
Scan type : Progressive
Compression mode : Lossy
Bits/(Pixel*Frame) : 0.320
Stream size : 1.27 GiB (91%)
Writing library : XviD 73

Audio
ID : 1
Format : AC-3
Format/Info : Audio Coding 3
Mode extension : CM (complete main)
Format settings, Endianness : Big
Codec ID : 2000
Duration : 1h 25mn
Bit rate mode : Constant
Bit rate : 192 Kbps
Channel(s) : 2 channels
Channel positions : Front: L R
Sampling rate : 48.0 KHz
Compression mode : Lossy
Stream size : 118 MiB (8%)
Alignment : Split accross interleaves
Interleave, duration : 42 ms (1.00 video frame)
Interleave, preload duration : 500 ms


_________________



реклама партнёра


Вернуться к началу
 Профиль Отправить личное сообщение  
 
   Похожие торренты   Автор   Торрент   Размер 
В этой теме нет новых непрочитанных сообщений. Кровавая ловушка / Blood Trap [ужасы, боевик, триллер, криминал, 2016] WEBDLRip, Avo

salma3

107 | 33

1.45 ГБ

В этой теме нет новых непрочитанных сообщений. Кровавое пристанище / Blood Shed [ужасы, 2014] WEB-DL 720p, dvo

Dracon

61 | 7

3.11 ГБ

В этой теме нет новых непрочитанных сообщений. Кровавое пристанище / Blood Shed [ужасы, 2014] WEB-DL 720p, Avo

salma3

2 | 4

2.98 ГБ

В этой теме нет новых непрочитанных сообщений. Кровавое озеро: Атака миног-убийц / Blood Lake: Attack of the Killer Lampreys [ужасы, 2014] HDTVRip, Dub

salma3

144 | 8

1.37 ГБ

В этой теме нет новых непрочитанных сообщений. Киборг X / Cyborg X [ужасы, боевик, 2016] WEBDLRip, Mvo

salma3

509 | 31

1.39 ГБ

В этой теме нет новых непрочитанных сообщений. Бета-тест / Beta Test [фантастика, боевик, триллер, 2016] WEBDLRip, MVO

salma3

1449 | 58

1.37 ГБ

В этой теме нет новых непрочитанных сообщений. План ограбления / Blue Line [боевик, триллер, 2016] WEBDLRip, Mvo [Официальный звук]

salma3

64 | 2

1.36 ГБ


Начать новую тему Ответить на тему  [ 1 сообщение ] 




Для Мосгорсуда, Роскомнадзора и рекламодателей:: mosgorsud-torrent[собачка]yandex.ru