Торрент файл
скачать торрент магнет ссылка Добавлен: 25 апр 2016, 20:00
Размер: 1.85 ГБ
Сидеров: 47
Личеров: 19
Статус: (salma3)
Автор

СообщениеДобавлено: 25 апр 2016, 20:00 

Не в сети
Супермодератор
Аватара пользователя
Дата регистрации:
15 фев 2012, 16:44
Возраст: 28
Спасибо: 6593 / 2145
Сообщения: 44156
Год выхода: 1988
Жанр: триллер, боевик, драма, криминал
Режиссер: Уильям Тэннен / William Tannen

В ролях: Чак Норрис, Бринн Тэйер, Стив Джеймс, Джек О`Хэллоран, Джефри Крамер, Рон О`Нил, Мёрфи Данн, Хэзер Блоджет, Тони ДиБенедетто, Билли Драго, Карен Уиттер, Лорри Голдмен, Кристин Вагнер, Билл Харрис, Брэнском Ричмонд, Тииу Леек, Саладин Джеймс, Мишель Майклс, Люси Ли Флиппин, Джон Солари, Роберт Уолл

О фильме:
Полицейский Дэнни О’Брайен чудом остался жив при задержании маньяка-душителя Саймона Муна по прозвищу «Монстр». За это дело пресса прозвала его Героем. В кошмарных снах Дэнни вновь и вновь возвращается в этот страшный днь. Проходит несколько лет, Дэнни прошёл курс реабилитации и уже начал забывать о Муне, но вдруг эти навязчивые сны опять начинают его тревожить. И не случайно, оказалось, что Монстр сбежал из клиники и нашёл себе новое логово в Лос-Анжелесе - где-то в недрах недавно перестроенного театра. Его жертвами уже стали несколько женщин, а затем и старый друг Дэнни. Герой вновь выходит на след Монстра.



Страна: США
Продолжительность: 01:36:43
Перевод: Профессиональный (многоголосый закадровый) Paramount Channel
Перевод 2: Профессиональный (многоголосый закадровый) R5
Перевод 3: Авторский (одноголосый закадровый) Алексей Михалев

Файл
Кодек: XviD
Качество: HDRip
Видео: 704x384 (1.83:1), 23.976 fps, XviD build 73 ~1961 kbps avg, 0.30 bit/pixel
Аудио 1: 48 kHz, AC3 Dolby Digital, 2/0 (L,R) ch, ~192 kbps | Paramount Channel
Аудио 2: 48 kHz, AC3 Dolby Digital, 2/0 (L,R) ch, ~192 kbps | R5 (отдельно)
Аудио 3: 48 kHz, AC3 Dolby Digital, 2/0 (L,R) ch, ~192 kbps | Алексей Михалев (отдельно)
Аудио 4: 48 kHz, AC3 Dolby Digital, 2/0 (L,R) ch, ~192 kbps | ENG (отдельно)
Субтитры: английские

General
Format : AVI
Format/Info : Audio Video Interleave
File size : 1.46 GiB
Duration : 1h 36mn
Overall bit rate : 2 162 Kbps
Writing application : VirtualDubMod 1.5.10.3 | www.virtualdub-fr.org || (build 2550/release)
Writing library : VirtualDubMod build 2550/release
Video
ID : 0
Format : MPEG-4 Visual
Format profile : Advanced Simple@L5
Format settings, BVOP : 1
Format settings, QPel : No
Format settings, GMC : No warppoints
Format settings, Matrix : Custom
Codec ID : XVID
Codec ID/Hint : XviD
Duration : 1h 36mn
Bit rate : 1 961 Kbps
Width : 704 pixels
Height : 384 pixels
Display aspect ratio : 1.85:1
Frame rate : 23.976 fps
Color space : YUV
Chroma subsampling : 4:2:0
Bit depth : 8 bits
Scan type : Progressive
Compression mode : Lossy
Bits/(Pixel*Frame) : 0.303
Stream size : 1.32 GiB (91%)
Writing library : XviD 73
Audio
ID : 1
Format : AC-3
Format/Info : Audio Coding 3
Mode extension : CM (complete main)
Format settings, Endianness : Big
Codec ID : 2000
Duration : 1h 36mn
Bit rate mode : Constant
Bit rate : 192 Kbps
Channel(s) : 2 channels
Channel positions : Front: L R
Sampling rate : 48.0 KHz
Bit depth : 16 bits
Compression mode : Lossy
Stream size : 133 MiB (9%)
Alignment : Split accross interleaves
Interleave, duration : 42 ms (1.00 video frame)
Interleave, preload duration : 500 ms


Релиз от:
Автор рипа: Sem-te


_________________
Проголосуй за трекер Открытый торрент трекер - RUS-MEDIA.ORG

Проголосуй Открытый торрент трекер - RUS-MEDIA.ORG



реклама партнёра


Вернуться к началу
 Профиль Отправить личное сообщение  
 
   Похожие торренты   Автор   Торрент   Размер 
В этой теме нет новых непрочитанных сообщений. Герой и Ужас / Hero and the Terror [боевик, триллер, драма, 1988] BDRip 720p, Mvo

salma3

21 | 8

11.14 ГБ

В этой теме нет новых непрочитанных сообщений. Американский герой / American Hero [фантастика, боевик, комедия, 2015] HDRip, Avo

salma3

4449 | 174

1.37 ГБ

В этой теме нет новых непрочитанных сообщений. Герой / The Hero [драма, комедия, 2017] HDRip, Mvo

salma3

76 | 4

1.36 ГБ

В этой теме нет новых непрочитанных сообщений. Герой / The Hero [драма, комедия, 2017] HDRip, Mvo

salma3

91 | 21

1.46 ГБ

В этой теме нет новых непрочитанных сообщений. Американский герой / American Hero (Ник Лав / Nick Love) [2015, Фантастика, боевик, комедия, HDRip] avo

Nickolas3435

257 | 10

1.2 ГБ

В этой теме нет новых непрочитанных сообщений. Герой / Hero [Боевик, драма, мелодрама, 2015] WEB-DLRip 720p, Dvo+Sub

salma3

992 | 205

2.19 ГБ

В этой теме нет новых непрочитанных сообщений. Американский герой / American Hero [фантастика, боевик, комедия, 2015] BDRip 720р Avo+Sub

salma3

683 | 115

3.92 ГБ


Начать новую тему Ответить на тему  [ 1 сообщение ] 




Для Мосгорсуда, Роскомнадзора и рекламодателей:: mosgorsud-torrent[собачка]yandex.ru