Торрент файл
скачать торрент магнет ссылка Добавлен: 25 апр 2016, 19:58
Размер: 1.46 ГБ
Сидеров: 55
Личеров: 0
Статус: (salma3)
Автор

СообщениеДобавлено: 25 апр 2016, 19:58 

Не в сети
Супермодератор
Аватара пользователя
Дата регистрации:
15 фев 2012, 16:44
Возраст: 28
Спасибо: 6579 / 2143
Сообщения: 43992
Год выхода: 1998
Жанр: Боевик, Драма, Криминал
Режиссер: Эндрю Гот / Andrew Goth

В ролях: Дэвид Боуи, Эндрю Гот, Рэйчел Шейли, Клинт Дайер, Дэвид Бэйкер, Грэм Брайан, Винсент Дэвис, Голди, Джэйн Дрэйвен, Кевин Джон Харви

О фильме:
Двоюродные братья Терри и Рей вышли на свободу и вновь возглавили банду, которая давно враждует с триадами. На самом деле Рей хочет «завязать» и заняться музыкой. Узнав об этом, Терри развязывает кровавую резню, и Рей, чтобы не бросить брата в беде, оказывается втянутым в нее.



Страна: Великобритания, Gothic Films
Продолжительность: 01:39:47
Перевод: Профессиональный, двуголосый закадровый

Файл
Кодек: XviD
Качество: DVDRip
Видео: 704x528, 25.000 fps, Xvid build 73 ~1706 kbps
Звук: AC3, 6 ch, 384 kbps, 48.00 kHz
Общее
Полное имя : Pontiy.DVDRip.avi
Формат : AVI
Формат/Информация : Audio Video Interleave
Размер файла : 1,46 Гбайт
Продолжительность : 1 ч. 39 м.
Общий поток : 2099 Кбит/сек
Программа кодирования : VirtualDubMod 1.5.10.3 | www.virtualdub-fr.org || (build 2550/release)
Библиотека кодирования : VirtualDubMod build 2550/release
Видео
Идентификатор : 0
Формат : MPEG-4 Visual
Профиль формата : Advanced Simple@L5
Параметр BVOP формата : 1
Параметр QPel формата : Нет
Параметр GMC формата : Без точки перехода
Параметр матрицы формата : Выборочная
Идентификатор кодека : XVID
Идентификатор кодека/Подсказка : XviD
Продолжительность : 1 ч. 39 м.
Битрейт : 1706 Кбит/сек
Ширина : 704 пикс.
Высота : 528 пикс.
Соотношение сторон : 4:3
Частота кадров : 25,000 кадр/сек
Цветовое пространство : YUV
Подвыборка цветности : 4:2:0
Битовая глубина : 8 бит
Тип развёртки : Прогрессивная
Метод сжатия : С потерями
Бит/(Пиксели*Кадры) : 0.184
Размер потока : 1,19 Гбайт (81%)
Библиотека кодирования : XviD 73
Аудио
Идентификатор : 1
Формат : AC-3
Формат/Информация : Audio Coding 3
Расширение режима : CM (complete main)
Идентификатор кодека : 2000
Продолжительность : 1 ч. 39 м.
Вид битрейта : Постоянный
Битрейт : 384 Кбит/сек
Канал(ы) : 6 канала(ов)
Расположение каналов : Front: L C R, Side: L R, LFE
Частота : 48,0 КГц
Битовая глубина : 16 бит
Метод сжатия : С потерями
Размер потока : 274 Мбайт (18%)
Выравнивание : Разделение по промежуткам
Продолжительность промежутка : 40 мс. (1,00 видеокадр)
Время предзагрузки промежутка : 500 ms

Релиз от: Leon-masl


_________________
Проголосуй за трекер Открытый торрент трекер - RUS-MEDIA.ORG

Проголосуй Открытый торрент трекер - RUS-MEDIA.ORG



реклама партнёра


Вернуться к началу
 Профиль Отправить личное сообщение  
 
   Похожие торренты   Автор   Торрент   Размер 
В этой теме нет новых непрочитанных сообщений. Стрела / Arrow [05х01-07 из 23] (фантастика, боевик, драма, криминал, детектив, приключения, 2016) HDTVRip | Sunshine Studio

marya111

111 | 535

3 ГБ

В этой теме нет новых непрочитанных сообщений. Черный список: Искупление / The Blacklist: Redemption [01x01 из 13] [Боевик, драма, криминал, 2017] WEB-DLRip 720p, Mvo [Sunshine Studio]

salma3

346 | 37

1.12 ГБ

В этой теме нет новых непрочитанных сообщений. Обход / Detour [боевик, триллер, драма, криминал, 1998] DVDRip, Mvo

salma3

38 | 5

1.37 ГБ

В этой теме нет новых непрочитанных сообщений. Крутые времена / Hard Time [боевик, драма, криминал, 1998] DVDRip, Avo

salma3

3 | 1

1.14 ГБ

В этой теме нет новых непрочитанных сообщений. Железный кулак / Iron Fist [S01] [Фантастика, боевик, криминал, 2017] WEBRip 720p, Dvo [Sunshine Studio]

salma3

167 | 209

23.27 ГБ

В этой теме нет новых непрочитанных сообщений. В розыске / A.P.B. [S12] [Драма, криминал, 2017] HDTVRip 720p, Dvo [Sunshine Studio]

salma3

24 | 36

11.49 ГБ

В этой теме нет новых непрочитанных сообщений. Убийца ворон / A Murder of Crows [боевик, триллер, криминал, 1998] DVDRip, Avo

salma3

120 | 19

1.46 ГБ


Начать новую тему Ответить на тему  [ 1 сообщение ] 




Для Мосгорсуда, Роскомнадзора и рекламодателей:: mosgorsud-torrent[собачка]yandex.ru