Торрент файл
скачать торрент магнет ссылка Добавлен: 25 апр 2016, 19:51
Размер: 1.46 ГБ
Сидеров: 33
Личеров: 0
Статус: (salma3)
Автор

СообщениеДобавлено: 25 апр 2016, 19:51 

Не в сети
Супермодератор
Аватара пользователя
Дата регистрации:
15 фев 2012, 16:44
Возраст: 27
Спасибо: 5139 / 2089
Сообщения: 17432
Страна: США
Жанр: Боевик
Год выпуска: 2001
Продолжительность: 01:45:50
Перевод: Профессиональный двухголосый
Режиссер: Роберт Мореско

В ролях: Уильям Болдуин, Конни Бриттон, Даш Михок, Джим Брюэр, Джош Хопкинс, Джейсон Гедрик, Арманд Ассанте, Гэри Файн, Джастин Брэдли, Джонни Гриффин, Митчел Дэвид Ротпан, Кевин Вудхаус, Томас Майкл, Паоло Манчини, Рик Айелло, Чазз Пальминтери

Описание: Фрэнки и Деннис с детства живут по суровым законам нью-йоркского квартала Адская Кухня. Ловкие аферы, кровавые разборки и жестокие убийства под крылом босса мафии Халли давно стали частью жизни Фрэнки, но после странной гибели Денниса он задумывается о своем будущем. Не боясь возмездия, отчаянный парень решает любой ценой докопаться до правды, еще не зная, что она изменит всю его жизнь …

Тип релиза: DVDRip
Контейнер: AVI
Видео: 704x384 (1.83:1), 25 fps, XviD MPEG-4 ~1574 kbps avg, 0.23 bit/pixel
Аудио 1: 48 kHz, AC3 Dolby Digital, 2/0 (L,R) ch, ~192 kbps (русский)
Аудио 2: 48 kHz, AC3 Dolby Digital, 2/0 (L,R) ch, ~192 kbps (английский)

Общее
Полное имя : D:ААА2Одноглазый король.avi
Формат : AVI
Формат/Информация : Audio Video Interleave
Размер файла : 1,46 Гбайт
Продолжительность : 1 ч. 45 м.
Общий поток : 1974 Кбит/сек
Программа кодирования : VirtualDubMod 1.5.10.2 (build 2540/release)
Библиотека кодирования : VirtualDubMod build 2540/release
Видео
Идентификатор : 0
Формат : MPEG-4 Visual
Профиль формата : Advanced Simple@L5
Параметр BVOP формата : 2
Параметр QPel формата : Нет
Параметр GMC формата : Без точки перехода
Параметр матрицы формата : Default (MPEG)
Режим смешивания : Сжатый битовый поток
Идентификатор кодека : XVID
Идентификатор кодека/Подсказка : XviD
Продолжительность : 1 ч. 45 м.
Битрейт : 1576 Кбит/сек
Ширина : 704 пикселя
Высота : 384 пикселя
Соотношение сторон : 1,85:1
Частота кадров : 25,000 кадров/сек
Цветовое пространство : YUV
Субдискретизация насыщенности : 4:2:0
Битовая глубина : 8 бит
Тип развёртки : Прогрессивная
Метод сжатия : С потерями
Бит/(Пиксели*Кадры) : 0.233
Размер потока : 1,16 Гбайт (80%)
Библиотека кодирования : XviD 1.2.1 (UTC 2008-12-04)
Аудио #1
Идентификатор : 1
Формат : AC-3
Формат/Информация : Audio Coding 3
Расширение режима : CM (complete main)
Параметр Endianness формата : Big
Идентификатор кодека : 2000
Продолжительность : 1 ч. 45 м.
Вид битрейта : Постоянный
Битрейт : 192 Кбит/сек
Каналы : 2 канала
Расположение каналов : Front: L R
Частота : 48,0 КГц
Битовая глубина : 16 бит
Метод сжатия : С потерями
Размер потока : 145 Мбайт (10%)
Выравнивание : Разделение по промежуткам
Продолжительность промежутка : 40 мс. (1,00 видеокадр)
Время предзагрузки промежутка : 500 мс.
Аудио #2
Идентификатор : 2
Формат : AC-3
Формат/Информация : Audio Coding 3
Расширение режима : CM (complete main)
Параметр Endianness формата : Big
Идентификатор кодека : 2000
Продолжительность : 1 ч. 45 м.
Вид битрейта : Постоянный
Битрейт : 192 Кбит/сек
Каналы : 2 канала
Расположение каналов : Front: L R
Частота : 48,0 КГц
Битовая глубина : 16 бит
Метод сжатия : С потерями
Размер потока : 145 Мбайт (10%)
Выравнивание : Разделение по промежуткам
Продолжительность промежутка : 40 мс. (1,00 видеокадр)
Время предзагрузки промежутка : 500 мс.


Релиз:


_________________



реклама партнёра


Вернуться к началу
 Профиль Отправить личное сообщение  
 
   Похожие торренты   Автор   Торрент   Размер 
В этой теме нет новых непрочитанных сообщений. Король приключений / Adventure King [Боевик, приключения, 1996] DVDRip, Mvo

salma3

45 | 4

746.59 МБ

В этой теме нет новых непрочитанных сообщений. Король обезьян / The Monkey King [Боевик, приключения, семейный, 2014] HDRip, Avo

salma3

291 | 8

1.46 ГБ

В этой теме нет новых непрочитанных сообщений. Король обезьян: Начало / The Monkey King the Legend Begins [фэнтези, боевик, приключения, 2016] WEBRip, Avo

salma3

774 | 23

1.46 ГБ

В этой теме нет новых непрочитанных сообщений. Король обезьян / The Monkey King: Wreaking Havoc in Heavenly Palace [боевик, приключения, семейный, фэнтези, 2014] BDRip 720p, avo

Dracon

63 | 6

4.15 ГБ

В этой теме нет новых непрочитанных сообщений. Анна и король / Anna and the King [Мультфильм, приключения, семейный, история, 2000] DVDRip, dub

salma3

21 | 4

655.29 МБ

В этой теме нет новых непрочитанных сообщений. Король говорит! / The King's Speech [Драма, биография, история, 2010] DVDRip, Dub [лицензия]

salma3

11 | 2

1.31 ГБ

В этой теме нет новых непрочитанных сообщений. KingSnake - One Eyed King Of The Blind [2013,Stoner Rock,Hard Rock,MP3]

PriZraK

0 | 1

95.78 МБ


Начать новую тему Ответить на тему  [ 1 сообщение ] 




Для Мосгорсуда, Роскомнадзора и рекламодателей:: mosgorsud-torrent[собачка]yandex.ru