Торрент файл
скачать торрент магнет ссылка Добавлен: 24 апр 2016, 11:10
Размер: 1.46 ГБ
Сидеров: 69
Личеров: 9
Статус: (salma3)
Автор

СообщениеДобавлено: 24 апр 2016, 11:10 

Не в сети
Супермодератор
Аватара пользователя
Дата регистрации:
15 фев 2012, 16:44
Возраст: 27
Спасибо: 5121 / 2089
Сообщения: 17296
Год выхода: 1990
Жанр: боевик, драма, криминал, детектив
Режиссер: Деран Сарафян / Deran Sarafian

В ролях: Жан-Клод Ван Дамм, Роберт Гийом, Синтия Гибб, Джордж Дикерсон, Арт ЛаФлёр, Патрик Килпатрик, Джошуа Джон Миллер, Хэнк Стоун, Конрад Данн, Джек Бэннон, Абдул Салаам Эль Раззас,

О фильме:
Ван Дамм в роли офицера Луиса Берка, «нечистого на руку» полицейского детектива, отправляется под видом осуждённого в тюрьму «Харрисон», чтобы раскрыть серию убийств заключённых. В стенах тюрьмы он сталкивается с жестокостью сокамерников, с коррумпированными охранниками, со смертью и предательством всех мастей.Когда Берк узнает шокирующую тайну тюрьмы, он должен совершить дерзкий побег — его последний шанс вырваться из лап сотен осуждённых головорезов, возглавляемых его кровным врагом.

Страна: Канада, США
Студия: Pathe Pictures International
Продолжительность: 01:29:03
Перевод: Профессиональный (многоголосый закадровый) Paramount Channel
Перевод 2: Профессиональный (многоголосый закадровый) СТС

Файл
Кодек: MPEG-4 AVC
Качество: BDRip-AVC
Видео: MPEG-4 AVC, 1766 Кбит/с, 768x416, 23.976 кадр/с
Аудио 1: 48 kHz, AC3 Dolby Digital, 2/0 (L,R) ch, ~192 kbps | Paramount Channel
Аудио 2: 48 kHz, AC3 Dolby Digital, 2/0 (L,R) ch, ~192 kbps | CTC
Аудио 3: 48 kHz, AC3 Dolby Digital, 2/0 (L,R) ch, ~192 kbps | Eng
Субтитры: Русские, английские

General
Unique ID : 210506767896700000069592853507794566069 (0x9E5E20F7A67653C5838FE835E9E47BB5)
Format : Matroska
Format version : Version 2
File size : 1.46 GiB
Duration : 1h 29mn
Overall bit rate : 2 344 Kbps
Encoded date : UTC 2016-04-21 19:15:13
Writing application : mkvmerge v7.8.0 ('River Man') 32bit built on Apr 3 2015 12:11:22
Writing library : libebml v1.3.1 + libmatroska v1.4.2
Video
ID : 1
Format : AVC
Format/Info : Advanced Video Codec
Format profile : High@L4.1
Format settings, CABAC : Yes
Format settings, ReFrames : 8 frames
Codec ID : V_MPEG4/ISO/AVC
Duration : 1h 29mn
Bit rate : 1 766 Kbps
Width : 768 pixels
Height : 416 pixels
Display aspect ratio : 1.85:1
Frame rate mode : Constant
Frame rate : 23.976 fps
Color space : YUV
Chroma subsampling : 4:2:0
Bit depth : 8 bits
Scan type : Progressive
Bits/(Pixel*Frame) : 0.231
Stream size : 1.07 GiB (73%)
Writing library : x264 core 146 r2538 121396c
Encoding settings : cabac=1 / ref=8 / deblock=1:-2:-1 / analyse=0x3:0x133 / me=umh / subme=11 / psy=1 / psy_rd=1.00:0.20 / mixed_ref=1 / me_range=32 / chroma_me=1 / trellis=2 / 8x8dct=1 / cqm=0 / deadzone=21,11 / fast_pskip=1 / chroma_qp_offset=-3 / threads=3 / lookahead_threads=1 / sliced_threads=0 / nr=0 / decimate=1 / interlaced=0 / bluray_compat=0 / constrained_intra=0 / bframes=8 / b_pyramid=2 / b_adapt=2 / b_bias=0 / direct=3 / weightb=1 / open_gop=0 / weightp=2 / keyint=250 / keyint_min=23 / scenecut=40 / intra_refresh=0 / rc_lookahead=60 / rc=2pass / mbtree=1 / bitrate=1766 / ratetol=1.0 / qcomp=0.60 / qpmin=0 / qpmax=69 / qpstep=4 / cplxblur=20.0 / qblur=0.5 / ip_ratio=1.40 / aq=1:1.00
Default : Yes
Forced : No
Audio #1
ID : 2
Format : AC-3
Format/Info : Audio Coding 3
Mode extension : CM (complete main)
Format settings, Endianness : Big
Codec ID : A_AC3
Duration : 1h 29mn
Bit rate mode : Constant
Bit rate : 192 Kbps
Channel(s) : 2 channels
Channel positions : Front: L R
Sampling rate : 48.0 KHz
Bit depth : 16 bits
Compression mode : Lossy
Stream size : 122 MiB (8%)
Title : Paramount Channel
Language : Russian
Default : Yes
Forced : No
Audio #2
ID : 3
Format : AC-3
Format/Info : Audio Coding 3
Mode extension : CM (complete main)
Format settings, Endianness : Big
Codec ID : A_AC3
Duration : 1h 29mn
Bit rate mode : Constant
Bit rate : 192 Kbps
Channel(s) : 2 channels
Channel positions : Front: L R
Sampling rate : 48.0 KHz
Bit depth : 16 bits
Compression mode : Lossy
Stream size : 122 MiB (8%)
Title : СТС
Language : Russian
Default : No
Forced : No
Audio #3
ID : 4
Format : AC-3
Format/Info : Audio Coding 3
Mode extension : CM (complete main)
Format settings, Endianness : Big
Codec ID : A_AC3
Duration : 1h 29mn
Bit rate mode : Constant
Bit rate : 192 Kbps
Channel(s) : 2 channels
Channel positions : Front: L R
Sampling rate : 48.0 KHz
Bit depth : 16 bits
Compression mode : Lossy
Stream size : 122 MiB (8%)
Language : English
Default : No
Forced : No
Text #1
ID : 5
Format : UTF-8
Codec ID : S_TEXT/UTF8
Codec ID/Info : UTF-8 Plain Text
Language : Russian
Default : No
Forced : No
Text #2
ID : 6
Format : UTF-8
Codec ID : S_TEXT/UTF8
Codec ID/Info : UTF-8 Plain Text
Language : English
Default : No
Forced : No

Релиз от: Автор рипа: [color=green] Sem-te


_________________



реклама партнёра


Вернуться к началу
 Профиль Отправить личное сообщение  
 
   Похожие торренты   Автор   Торрент   Размер 
В этой теме нет новых непрочитанных сообщений. Смерть в Брунсвике / Death in Brunswick [триллер, комедия, криминал, 1990] DVDRip, Mvo [Рен ТВ]

salma3

28 | 2

1.37 ГБ

В этой теме нет новых непрочитанных сообщений. Warrant - Cherry Pie [1990, Glam Hard Rock, MP3]

PriZraK

0 | 1

51.51 МБ

В этой теме нет новых непрочитанных сообщений. Розы, поцелуи и смерть / Rosor, kisser och doden (Биргер Ларсен /| Birger Larsen) [2013г., криминал, драма, детектив, BDRip 720p] MVO

Alfredovich

0 | 2

23.57 ГБ

В этой теме нет новых непрочитанных сообщений. Смерть супергероя / Death of a Superhero [Драма, 2011] BDRip 720p, Mvo [Лицензия]

salma3

13 | 4

3.34 ГБ

В этой теме нет новых непрочитанных сообщений. Твин Пикс / Twin Peaks [S01] [Триллер, драма, криминал, детектив, 1990] BDRip 720p, 2Mvo+2Avo+Sub

salma3

36 | 14

31.85 ГБ

В этой теме нет новых непрочитанных сообщений. Твин Пикс / Twin Peaks [S01-02] [Триллер, драма, криминал, детектив, 1990] BDRip 720p, 2Mvo+2Avo+Sub

salma3

38 | 46

104.54 ГБ

В этой теме нет новых непрочитанных сообщений. Остров огня / Island of fire [Боевик, драма, криминал, 1990] BDRip 1080p, Mvo+Avo+Sub

salma3

41 | 7

6.35 ГБ


Начать новую тему Ответить на тему  [ 1 сообщение ] 




Для Мосгорсуда, Роскомнадзора и рекламодателей:: mosgorsud-torrent[собачка]yandex.ru