Торрент файл
скачать торрент магнет ссылка Добавлен: 20 апр 2016, 12:15
Размер: 1.46 ГБ
Сидеров: 52
Личеров: 2
Статус: (salma3)
Автор

СообщениеДобавлено: 20 апр 2016, 12:15 

Не в сети
Супермодератор
Аватара пользователя
Дата регистрации:
15 фев 2012, 16:44
Возраст: 27
Спасибо: 5130 / 2089
Сообщения: 17350
Год выхода: 1993
Жанр: боевик, мелодрама, драма, вестерн
Режиссер: Джордж П. Косматос / George P. Cosmatos

В ролях: Курт Рассел, Вэл Килмер, Майкл Бьен, Пауэрс Бут, Роберт Берк, Дэна Дилэйни, Сэм Эллиотт, Стивен Лэнг, Йоанна Пакула, Билл Пэкстон, Билли Зэйн

О фильме:
1871 год. В США закончилась гражданская война. Фермеры, грабители, золотоискатели, убийцы, воры — все отправились на поиски состояний. Нам расскажут легенду о шерифе Эрби, который отказался от своей работы, чтобы начать нормальную жизнь со своей семьей. Его друг Док Холлидей, южанин и игрок, тоже решил зажить нормальной жизнью.
В городе Тумстоун нашли месторождение серебра, началась серебряная лихорадка. Там и решили они осесть. Но в то же время там же организовалась жестокая и огромная банда убийц.



Страна: США
Продолжительность: 02:09:37
Перевод: Авторский одноголосый П.Карцев

Файл
Кодек: XviD
Качество: HDRip
Видео: 720x304, 23,976 fps, XviD build 73 ~ 1415 kbps
Звук: 48 kHz, AC3 Dolby Digital, 2/0 (L,R), ~192.00 kbps
Общее
Полное имя : Тумстоун.1993.HDRip.avi
Формат : AVI
Формат/Информация : Audio Video Interleave
Размер файла : 1,46 Гбайт
Продолжительность : 2 ч. 9 м.
Общий поток : 1616 Кбит/сек
Программа кодирования : VirtualDubMod 1.5.10.3 | www.virtualdub-fr.org || (build 2550/release)
Библиотека кодирования : VirtualDubMod build 2550/release
Видео
Идентификатор : 0
Формат : MPEG-4 Visual
Профиль формата : Advanced Simple@L5
Параметр BVOP формата : 1
Параметр QPel формата : Нет
Параметр GMC формата : Без точки перехода
Параметр матрицы формата : Выборочная
Идентификатор кодека : XVID
Идентификатор кодека/Подсказка : XviD
Продолжительность : 2 ч. 9 м.
Битрейт : 1415 Кбит/сек
Ширина : 720 пикс.
Высота : 304 пикс.
Соотношение сторон : 2,35:1
Частота кадров : 23,976 кадр/сек
Цветовое пространство : YUV
Подвыборка цветности : 4:2:0
Битовая глубина : 8 бит
Тип развёртки : Прогрессивная
Метод сжатия : С потерями
Бит/(Пиксели*Кадры) : 0.270
Размер потока : 1,28 Гбайт (88%)
Библиотека кодирования : XviD 73
Аудио
Идентификатор : 1
Формат : AC-3
Формат/Информация : Audio Coding 3
Расширение режима : CM (complete main)
Идентификатор кодека : 2000
Продолжительность : 2 ч. 9 м.
Вид битрейта : Постоянный
Битрейт : 192 Кбит/сек
Канал(ы) : 2 канала(ов)
Расположение каналов : Front: L R
Частота : 48,0 КГц
Битовая глубина : 16 бит
Метод сжатия : С потерями
Размер потока : 178 Мбайт (12%)
Выравнивание : Разделение по промежуткам
Продолжительность промежутка : 42 мс. (1,00 видеокадр)
Время предзагрузки промежутка : 500 ms

Релиз от: Leon-masl


_________________



реклама партнёра


Вернуться к началу
 Профиль Отправить личное сообщение  
 
   Похожие торренты   Автор   Торрент   Размер 
В этой теме нет новых непрочитанных сообщений. Человек с запада / Man of the West [драма, мелодрама, вестерн, 1958] BDRip 720p, Dvo

salma3

134 | 24

3.24 ГБ

В этой теме нет новых непрочитанных сообщений. Инопланетяне раскрывают свои планы: День оцепеневшего запада / Alien Showdown: The Day the Old West Stood Still [ужасы, фантастика, боевик, приключения, вестерн, 2013] HDRip, Avo

salma3

39 | 3

866.77 МБ

В этой теме нет новых непрочитанных сообщений. Легенда Зорро / The Legend of Zorro [боевик, приключения, вестерн, 2005] HDRip, Avo [Гаврилов]

salma3

12 | 5

2.17 ГБ

В этой теме нет новых непрочитанных сообщений. Тарзан. Легенда / The Legend of Tarzan [боевик, драма, мелодрама, приключения, 2016] BDRip 1080p, Dub [iTunes]

marya111

755 | 76

7.46 ГБ

В этой теме нет новых непрочитанных сообщений. Недооформлен Тарзан. Легенда / The Legend of Tarzan ( боевик, драма, мелодрама, приключения, 2016) BDRip от ExKinoRay | Лицензия Данный торрент является блокированным, причина: недооформленный торрент

marya111

0 | 0

1.46 ГБ

В этой теме нет новых непрочитанных сообщений. Тарзан. Легенда / The Legend of Tarzan ( боевик, драма, мелодрама, приключения, 2016) BDRip-AVC от HELLYWOOD | Лицензия

marya111

166 | 7

2.18 ГБ

В этой теме нет новых непрочитанных сообщений. Тарзан. Легенда / The Legend of Tarzan (боевик, драма, мелодрама, приключения, 2016) BDRip от HQCLUB | D | Лицензия

marya111

210 | 14

2.18 ГБ


Начать новую тему Ответить на тему  [ 1 сообщение ] 




Для Мосгорсуда, Роскомнадзора и рекламодателей:: mosgorsud-torrent[собачка]yandex.ru