Торрент файл
скачать торрент магнет ссылка Добавлен: 14 апр 2016, 11:44
Размер: 2.07 ГБ
Сидеров: 267
Личеров: 77
Статус: (salma3)
Автор

СообщениеДобавлено: 14 апр 2016, 11:44 

Не в сети
Супермодератор
Аватара пользователя
Дата регистрации:
15 фев 2012, 16:44
Возраст: 28
Спасибо: 6569 / 2137
Сообщения: 43777
Год выхода: 2015
Жанр: приключения, ужасы, экшн
Режиссер: Вуершан / Wuershan

В ролях: Шу Ци, Чэнь Кунь, Хуан Бо, Анжела Бейби, Ся Юй, Лю Сяоцин, Черри Нган и др.

О фильме:
Бывший солдат Ху вместе с напарником промышляет расхищением гробниц. Он навлекает на себя ужасное проклятие и, чтобы освободиться, пускается в путешествие по мистическим местам Китая и Тибета в поисках разгадок древних тайн.



Страна: Китай
Продолжительность: 02:04:45
Перевод: Любительский (двухголосый закадровый) | Ворон и Sandairina
Файл
Кодек: XviD
Качество: HDRip
Видео: MPEG4, XviD, 720x304 (2.35:1), 24.000 fps, 1 915 Kbps (0.365 bit/pixel)
Звук: AC-3, 48.0 KHz, 6 ch, 448 Kbps, CBR
Субтитры: Русские (форсированные) , Русские(полные)
Общее
Полное имя : Mojin.The.Lost.Legend.2015.L2.2100.avi
Формат : AVI
Формат/Информация : Audio Video Interleave
Профиль формата : OpenDML
Размер файла : 2,07 Гбайт
Продолжительность : 2 ч. 4 м.
Общий поток : 2375 Кбит/сек
Программа кодирования : VirtualDubModRus 1.5.10.2 (build 2542/release)
Библиотека кодирования : VirtualDubMod build 2542/release
Видео
Идентификатор : 0
Формат : MPEG-4 Visual
Профиль формата : Advanced Simple@L5
Параметр BVOP формата : Да
Параметр QPel формата : Нет
Параметр GMC формата : Без точки перехода
Параметр матрицы формата : Default (H.263)
Идентификатор кодека : XVID
Идентификатор кодека/Подсказка : XviD
Продолжительность : 2 ч. 4 м.
Битрейт : 1915 Кбит/сек
Ширина : 720 пикселей
Высота : 304 пикселя
Соотношение сторон : 2,35:1
Частота кадров : 24,000 кадра/сек
Цветовое пространство : YUV
Субдискретизация насыщенности : 4:2:0
Битовая глубина : 8 бит
Тип развёртки : Прогрессивная
Метод сжатия : С потерями
Бит/(Пиксели*Кадры) : 0.365
Размер потока : 1,67 Гбайт (81%)
Библиотека кодирования : XviD 64
Аудио
Идентификатор : 1
Формат : AC-3
Формат/Информация : Audio Coding 3
Расширение режима : CM (complete main)
Параметр Endianness формата : Big
Идентификатор кодека : 2000
Продолжительность : 2 ч. 4 м.
Вид битрейта : Постоянный
Битрейт : 448 Кбит/сек
Каналы : 6 каналов
Расположение каналов : Front: L C R, Side: L R, LFE
Частота : 48,0 КГц
Частота кадров : 31,250 кадров/сек (1536 spf)
Метод сжатия : С потерями
Размер потока : 400 Мбайт (19%)
Выравнивание : Разделение по промежуткам
Продолжительность промежутка : 42 мс. (1,00 видеокадр)
Время предзагрузки промежутка : 500 мс.


_________________
Проголосуй за трекер Открытый торрент трекер - RUS-MEDIA.ORG

Проголосуй Открытый торрент трекер - RUS-MEDIA.ORG



реклама партнёра


Вернуться к началу
 Профиль Отправить личное сообщение  
 
   Похожие торренты   Автор   Торрент   Размер 
В этой теме нет новых непрочитанных сообщений. Легенда о потерянном / Legend of the Lost [Драма, приключения, 1957] BDRip 1080p, Avo+Sub

salma3

3 | 5

7.66 ГБ

В этой теме нет новых непрочитанных сообщений. Легенда / Legend [криминал, триллер, драма, 2015] HDRip, Dub [лицензия]

salma3

612 | 16

1.45 ГБ

В этой теме нет новых непрочитанных сообщений. Легенда / Legend [криминал, триллер, драма, 2015] HDRip, Dub [лицензия]

Dracon

180 | 6

2.18 ГБ

В этой теме нет новых непрочитанных сообщений. Повторный Тарзан. Легенда / The Legend of Tarzan (Приключения, 2016) HDRip от NovaLan| iTunes Данный торрент является блокированным, причина: повторный торрент

marya111

77 | 38

2.05 ГБ

В этой теме нет новых непрочитанных сообщений. Легенда Зорро / The Legend of Zorro [боевик, приключения, вестерн, 2005] HDRip, Avo [Гаврилов]

salma3

12 | 5

2.17 ГБ

В этой теме нет новых непрочитанных сообщений. Поглощён Тарзан. Легенда / The Legend of Tarzan (Дэвид Йэтс) [2016, Боевик, приключения, HDRip | iTunes] Dub Данный торрент является блокированным, причина: поглощённый торрент

marya111

651 | 74

2.05 ГБ

В этой теме нет новых непрочитанных сообщений. Феи: Легенда о чудовище / Legend of the NeverBeast (Стив Лотер) [мультфильм, фэнтези, приключения, семейный, 2014] HDRip, Dub [iTunes Russia]

Dracon

295 | 10

1.37 ГБ


Начать новую тему Ответить на тему  [ 1 сообщение ] 




Для Мосгорсуда, Роскомнадзора и рекламодателей:: mosgorsud-torrent[собачка]yandex.ru