Торрент файл
скачать торрент магнет ссылка Добавлен: 14 апр 2016, 11:42
Размер: 2.81 ГБ
Сидеров: 164
Личеров: 68
Статус: (salma3)
Автор

СообщениеДобавлено: 14 апр 2016, 11:42 

Не в сети
Супермодератор
Аватара пользователя
Дата регистрации:
15 фев 2012, 16:44
Возраст: 27
Спасибо: 5139 / 2089
Сообщения: 17425
Год выхода: 2015
Жанр: ужасы
Режиссер: Руби ЛаРокка, Рич Маллери

В ролях: Николя Фиоре, Аста Паредес, Тэмми Джин, Руби ЛаРокка, Джордж Стоувер, Николетт Ле Фэй, Рич Маллери, Brandy Noir, Desiree Saetia, Табета Рэй

О фильме: Немного странная и замкнутая в себе девушка по имени Мара проводит свои дни за изготовлением реквизита для фильмов. Но её затворническая персона скрывает внутренний страх - она боится остаться одна. Именно по этой причине Мара не отпускает от себя своих возлюбленных, она просто напросто убивает их и оставляет их трупы в качестве трафейных кукол.



Выпущено: США / Ear Candy Sound, Napalm Love Productions
Продолжительность: 01:26:31
Озвучивание: Любительское (одноголосое) [datynet], перевод [Куценко]

Файл
Формат: MKV
Качество: WEB-DL 720p
Видео: MPEG-4 AVC, 3976 kb/s, 1280x636
Аудио: Russian: AC3, 192 kb/s (2 ch) / English: AC3, 384 kb/s (6 ch)
Субтитры: English
Format : Matroska
Format version : Version 2
File size : 2.81 GiB
Duration : 1h 26mn
Overall bit rate : 4 644 Kbps
Encoded date : UTC 2016-04-13 13:19:16
Writing application : mkvmerge v7.8.0 ('River Man') 32bit built on Apr 3 2015 12:11:22
Writing library : libebml v1.3.1 + libmatroska v1.4.2
Video
ID : 1
Format : AVC
Format/Info : Advanced Video Codec
Format profile : High@L3.1
Format settings, CABAC : No
Format settings, ReFrames : 2 frames
Codec ID : V_MPEG4/ISO/AVC
Duration : 1h 26mn
Bit rate : 3 976 Kbps
Width : 1 280 pixels
Height : 636 pixels
Display aspect ratio : 2.013
Frame rate mode : Constant
Frame rate : 23.976 fps
Color space : YUV
Chroma subsampling : 4:2:0
Bit depth : 8 bits
Scan type : Progressive
Bits/(Pixel*Frame) : 0.204
Stream size : 2.40 GiB (86%)
Language : English
Default : Yes
Forced : No
Color range : Limited
Color primaries : BT.709
Transfer characteristics : BT.709
Matrix coefficients : BT.709
Audio #1
ID : 2
Format : AC-3
Format/Info : Audio Coding 3
Mode extension : CM (complete main)
Format settings, Endianness : Big
Codec ID : A_AC3
Duration : 1h 26mn
Bit rate mode : Constant
Bit rate : 192 Kbps
Channel(s) : 2 channels
Channel positions : Front: L R
Sampling rate : 48.0 KHz
Bit depth : 16 bits
Compression mode : Lossy
Stream size : 119 MiB (4%)
Language : Russian
Default : Yes
Forced : No
Audio #2
ID : 3
Format : AC-3
Format/Info : Audio Coding 3
Mode extension : CM (complete main)
Format settings, Endianness : Big
Codec ID : A_AC3
Duration : 1h 26mn
Bit rate mode : Constant
Bit rate : 384 Kbps
Channel(s) : 6 channels
Channel positions : Front: L C R, Side: L R, LFE
Sampling rate : 48.0 KHz
Bit depth : 16 bits
Compression mode : Lossy
Stream size : 238 MiB (8%)
Language : English
Default : No
Forced : No
Text
ID : 4
Format : UTF-8
Codec ID : S_TEXT/UTF8
Codec ID/Info : UTF-8 Plain Text
Language : English
Default : No
Forced : No
Menu
00:00:00.000 : en:Chapter 1
00:07:14.851 : en:Chapter 2
00:15:01.526 : en:Chapter 3
00:22:24.260 : en:Chapter 4
00:30:38.545 : en:Chapter 5
00:37:38.882 : en:Chapter 6
00:44:18.990 : en:Chapter 7
00:53:39.925 : en:Chapter 8
01:02:03.011 : en:Chapter 9
01:09:34.420 : en:Chapter 10
01:17:38.112 : en:Chapter 11
01:24:30.983 : en:Chapter 12




_________________



реклама партнёра


Вернуться к началу
 Профиль Отправить личное сообщение  
 
   Похожие торренты   Автор   Торрент   Размер 
В этой теме нет новых непрочитанных сообщений. Социопатия / Sociopathia [ужасы, 2015] WEB-DLRip, Avo

salma3

868 | 155

1.38 ГБ

В этой теме нет новых непрочитанных сообщений. Ужасы по дешевке / Страшные сказки / Penny Dreadful [02x01-10 из 10] (Хуан Антонио Байона, Коки Гидройч, Джеймс Хоуз) [2015, ужасы, драма, HDTVRip 720p | Amedia]

Nickolas3435

25 | 32

13.25 ГБ

В этой теме нет новых непрочитанных сообщений. Старый 37 / Old 37 [ужасы, 2015] WEB-DL 720p, Dvo

salma3

79 | 3

2.66 ГБ

В этой теме нет новых непрочитанных сообщений. Мы всё ещё здесь / We Are Still Here (Тед Гейган) [Ужасы, 2015] WEB-DL 720p, avo

Dracon

408 | 22

2.51 ГБ

В этой теме нет новых непрочитанных сообщений. В одиночестве / Alone [мистика, ужасы, 2015] WEB-DLRip 720p, Avo

salma3

127 | 6

2.31 ГБ

В этой теме нет новых непрочитанных сообщений. Кабинет / Parlor [ужасы, 2015] BDRip 720p, Dvo

salma3

166 | 21

3.44 ГБ

В этой теме нет новых непрочитанных сообщений. Мученицы / Martyrs [Ужасы, 2015] BDRip 720p, Mvo

Dracon

557 | 47

3.55 ГБ


Начать новую тему Ответить на тему  [ 1 сообщение ] 




Для Мосгорсуда, Роскомнадзора и рекламодателей:: mosgorsud-torrent[собачка]yandex.ru