Торрент файл
скачать торрент магнет ссылка Добавлен: 13 апр 2016, 11:47
Размер: 1.46 ГБ
Сидеров: 73
Личеров: 42
Статус: (salma3)
Автор

СообщениеДобавлено: 13 апр 2016, 11:47 

Не в сети
Супермодератор
Аватара пользователя
Дата регистрации:
15 фев 2012, 16:44
Возраст: 27
Спасибо: 5509 / 2103
Сообщения: 21017
Год выхода: 1978
Жанр: Боевик
Режиссер: Тед Пост / Ted Post

В ролях: Чак Норрис, Энн Арчер, Джеймс Франсискус, Ллойд Хэйнс, Дэна Эндрюс, Джим Бакус, Лоуренс П. Кэйси, Энтони Маннино, О Сун Тек, Джо Беннетт, Джерри Дуглас, Дэвид Старуолт, Аарон Норрис, Бенжамин Дж. Перри, Джеймс Бэйкон, Виола Харрис

О фильме:
Кто-то методично уничтожает участников секретной операции «Феникс», проводимой правительством США. Командир спецподразделения «Черные Тигры» майор Джон Букер должен поставить точку в кровавой бойне.

Страна: США
Продолжительность: 01:35:34
Перевод: Профессиональный (многоголосый закадровый)
Перевод 2: Авторский (одноголосый закадровый) Михалёв
Файл
Кодек: MPEG-4 AVC
Качество: BDRip-AVC
Видео: MPEG-4 AVC, 1606 Кбит/с, 768х432, 23.976 кадр/с
Аудио: 48 kHz, AC3 Dolby Digital, 2/0 (L,R) ch, ~192 kbps | MVO
Аудио 2: 48 kHz, AC3 Dolby Digital, 2/0 (L,R) ch, ~192 kbps | AVO
Аудио 3: 48 kHz, AC3 Dolby Digital, 2/0 (L,R) ch, ~192 kbps | ENG
Субтитры: английские
Семпл

General
Unique ID : 173020535059170416648227251634079790284 (0x822A8AFE89A12F87AFA4A76BD713F4CC)
Format : Matroska
Format version : Version 2
File size : 1.46 GiB
Duration : 1h 35mn
Overall bit rate : 2 185 Kbps
Encoded date : UTC 2016-04-08 20:02:22
Writing application : mkvmerge v7.8.0 ('River Man') 32bit built on Apr 3 2015 12:11:22
Writing library : libebml v1.3.1 + libmatroska v1.4.2
Video
ID : 1
Format : AVC
Format/Info : Advanced Video Codec
Format profile : High@L4.1
Format settings, CABAC : Yes
Format settings, ReFrames : 8 frames
Codec ID : V_MPEG4/ISO/AVC
Duration : 1h 35mn
Bit rate : 1 606 Kbps
Width : 768 pixels
Height : 432 pixels
Display aspect ratio : 16:9
Frame rate mode : Constant
Frame rate : 23.976 fps
Color space : YUV
Chroma subsampling : 4:2:0
Bit depth : 8 bits
Scan type : Progressive
Bits/(Pixel*Frame) : 0.202
Stream size : 1.04 GiB (72%)
Writing library : x264 core 146 r2538 121396c
Encoding settings : cabac=1 / ref=8 / deblock=1:-2:-1 / analyse=0x3:0x133 / me=umh / subme=11 / psy=1 / psy_rd=1.00:0.20 / mixed_ref=1 / me_range=32 / chroma_me=1 / trellis=2 / 8x8dct=1 / cqm=0 / deadzone=21,11 / fast_pskip=1 / chroma_qp_offset=-3 / threads=3 / lookahead_threads=1 / sliced_threads=0 / nr=0 / decimate=1 / interlaced=0 / bluray_compat=0 / constrained_intra=0 / bframes=8 / b_pyramid=2 / b_adapt=2 / b_bias=0 / direct=3 / weightb=1 / open_gop=0 / weightp=2 / keyint=250 / keyint_min=23 / scenecut=40 / intra_refresh=0 / rc_lookahead=60 / rc=2pass / mbtree=1 / bitrate=1606 / ratetol=1.0 / qcomp=0.60 / qpmin=0 / qpmax=69 / qpstep=4 / cplxblur=20.0 / qblur=0.5 / ip_ratio=1.40 / aq=1:1.00
Default : Yes
Forced : No
Audio #1
ID : 2
Format : AC-3
Format/Info : Audio Coding 3
Mode extension : CM (complete main)
Format settings, Endianness : Big
Codec ID : A_AC3
Duration : 1h 35mn
Bit rate mode : Constant
Bit rate : 192 Kbps
Channel(s) : 2 channels
Channel positions : Front: L R
Sampling rate : 48.0 KHz
Bit depth : 16 bits
Compression mode : Lossy
Stream size : 131 MiB (9%)
Language : Russian
Default : Yes
Forced : No
Audio #2
ID : 3
Format : AC-3
Format/Info : Audio Coding 3
Mode extension : CM (complete main)
Format settings, Endianness : Big
Codec ID : A_AC3
Duration : 1h 35mn
Bit rate mode : Constant
Bit rate : 192 Kbps
Channel(s) : 2 channels
Channel positions : Front: L R
Sampling rate : 48.0 KHz
Bit depth : 16 bits
Compression mode : Lossy
Stream size : 131 MiB (9%)
Language : Russian
Default : No
Forced : No
Audio #3
ID : 4
Format : AC-3
Format/Info : Audio Coding 3
Mode extension : CM (complete main)
Format settings, Endianness : Big
Codec ID : A_AC3
Duration : 1h 35mn
Bit rate mode : Constant
Bit rate : 192 Kbps
Channel(s) : 2 channels
Channel positions : Front: L R
Sampling rate : 48.0 KHz
Bit depth : 16 bits
Compression mode : Lossy
Stream size : 131 MiB (9%)
Language : English
Default : No
Forced : No
Text
ID : 5
Format : UTF-8
Codec ID : S_TEXT/UTF8
Codec ID/Info : UTF-8 Plain Text
Language : English
Default : No
Forced : No

Релиз от:
Автор рипа: Sem-te


_________________
Проголосуй за трекер Открытый торрент трекер - RUS-MEDIA.ORG

Не забудьте оставить комментарий!



реклама партнёра


Вернуться к началу
 Профиль Отправить личное сообщение  
 
   Похожие торренты   Автор   Торрент   Размер 
В этой теме нет новых непрочитанных сообщений. Чёрные тигры / Good Guys Wear Black [боевик, 1978] BDRip 1080p, Mvo

salma3

44 | 9

7.96 ГБ

В этой теме нет новых непрочитанных сообщений. Черные тигры / Good Guys Wear Black [Боевик, 1978] BDRemux 1080р, Mvo

salma3

21 | 4

16.46 ГБ

В этой теме нет новых непрочитанных сообщений. Черные тигры / Хорошие парни носят черное / Крутые парни ходят в черном / Good Guys Wear Black [боевик, 1978] BDRip, Mvo

salma3

0 | 1

1.46 ГБ

В этой теме нет новых непрочитанных сообщений. Black Abyss - Angels Wear Black [2004, Power Metal, MP3]

PriZraK

0 | 1

106.88 МБ

В этой теме нет новых непрочитанных сообщений. Пусть дьявол носит черное / Let the Devil Wear Black [триллер, драма, криминал, 1999] DVDRip, Avo

salma3

138 | 19

1.46 ГБ

В этой теме нет новых непрочитанных сообщений. Чёрные паруса / Black Sails (Сезон 1-2, Серии 1-18 из 18) (Нил Маршалл, Сэм Миллер, Т.Дж. Скотт) [2014-2015, Драма, приключения, BDRip,HDTVRip] [DD5.1] [MVO] [AlexFilm+ Subs Rus,ENG]

Враг Нароода

5 | 10

25.98 ГБ

В этой теме нет новых непрочитанных сообщений. Black POV Adventures / Черные приключения от первого лица (Rob Piper / West Coast Productions) (Cherry Hilson, Yasmine DeLeon, Chanell Heart, Nevaeh Keys, Diamond...) [2013 г., Gonzo, Black, P.O.V., WEB-DL 1080p]

friizze

1 | 3

3.9 ГБ


Начать новую тему Ответить на тему  [ 1 сообщение ] 




Для Мосгорсуда, Роскомнадзора и рекламодателей:: mosgorsud-torrent[собачка]yandex.ru