Торрент файл
скачать торрент магнет ссылка Добавлен: 11 апр 2016, 13:26
Размер: 2.17 ГБ
Сидеров: 72
Личеров: 10
Статус: (salma3)
Автор

СообщениеДобавлено: 11 апр 2016, 13:26 

Не в сети
Супермодератор
Аватара пользователя
Дата регистрации:
15 фев 2012, 16:44
Возраст: 27
Спасибо: 5140 / 2090
Сообщения: 17466
Производство: США, NPP Productions Inc, Screen Gems
Жанр: Триллер, Ужасы
Режиссер: Мэри Ламберт

Актеры: Кейт Мара, Роберт Вито, Тина Лиффорд, Эд Маринаро, Майкл Коу, Лилит Филдс, Нэнси Эверхард, Одра Лиа Кинер, Дон Шанкс, Джефф Олсон, Нат Херд, Брэндон Сакс, Хейли Смит

Описание:
Хорошие шутки остаются на добрую память. В светлой памяти остаются участники плохих. Троица школьных друзей решает прикола ради прочесть на выпускном балу заклинание, по преданию, вызывающее злой дух, известный как Кровавая Мэри. Очень остроумно. Особенно, когда в ночной тиши прокатывается волна жутких смертей, и всем становится ясно, что байки про несущий гибель призрак оказались правдой! Шутка явно зашла дальше, чем рассчитывали легкомысленные герои. Чтобы спасти свои жизни, им придется срочно найти то, о чем городские легенды помалкивают - способ отправить кровожадного монстра обратно в ад!..



Возраст: 18+ (зрителям, достигшим 18 лет. запрещено для детей)
Рейтинг MPAA: R (лицам до 17 лет обязательно присутствие взрослого)
Дата мировой премьеры: 19 июля 2005,
Дата российской премьеры: -
Дата выхода DVD/Blu-ray релиза: 1 сентября 2005, «Columbia/Sony»
Релиз от: K.E.N (NNM-CLUB)
Продолжительность: 01:29:51
Качество видео: DVDRip-AVC
Перевод: Многоголосый закадровый, профессиональный
Субтитры: Отсутствуют
Видео: AVC, 1024x552, 25 fps, 2 567 Kbps (0.145 bit/pixel)
Аудио #1: AC-3, 48.0 KHz, 6 ch, 448 Kbps, CBR (Russian)
Аудио #2: AC-3, 48.0 KHz, 6 ch, 448 Kbps, CBR (English)
Формат : Matroska
Версия формата : Version 2
Размер файла : 2,17 Гбайт
Продолжительность : 1 ч. 43 м.
Общий поток : 3002 Кбит/сек
Дата кодирования : UTC 2016-04-09 07:39:06
Программа кодирования : mkvmerge v5.3.0 ('I could have danced') built on Feb 9 2012 10:38:07
Библиотека кодирования : libebml v1.2.3 + libmatroska v1.3.0
Attachment : Yes
Видео
Идентификатор : 1
Формат : AVC
Формат/Информация : Advanced Video Codec
Профиль формата : High@L4.1
Параметр CABAC формата : Да
Параметр ReFrames формата : 10 кадров
Идентификатор кодека : V_MPEG4/ISO/AVC
Продолжительность : 1 ч. 43 м.
Битрейт : 2046 Кбит/сек
Номинальный битрейт : 2567 Кбит/сек
Ширина : 1024 пикселя
Высота : 552 пикселя
Соотношение сторон : 1,85:1
Режим частоты кадров : Постоянный
Частота кадров : 25,000 кадров/сек
Цветовое пространство : YUV
Субдискретизация насыщенности : 4:2:0
Битовая глубина : 8 бит
Тип развёртки : Прогрессивная
Бит/(Пиксели*Кадры) : 0.145
Размер потока : 1,48 Гбайт (68%)
Библиотека кодирования : x264 core 146 r2538 121396c
Настройки программы : cabac=1 / ref=10 / deblock=1:-3:-3 / analyse=0x3:0x133 / me=umh / subme=10 / psy=1 / psy_rd=1.00:0.15 / mixed_ref=1 / me_range=32 / chroma_me=1 / trellis=2 / 8x8dct=1 / cqm=0 / deadzone=21,11 / fast_pskip=0 / chroma_qp_offset=-3 / threads=12 / lookahead_threads=2 / sliced_threads=0 / nr=0 / decimate=0 / interlaced=0 / bluray_compat=0 / constrained_intra=0 / bframes=8 / b_pyramid=2 / b_adapt=2 / b_bias=0 / direct=3 / weightb=1 / open_gop=0 / weightp=2 / keyint=240 / keyint_min=23 / scenecut=40 / intra_refresh=0 / rc=2pass / mbtree=0 / bitrate=2567 / ratetol=1.0 / qcomp=0.60 / qpmin=0 / qpmax=69 / qpstep=4 / cplxblur=20.0 / qblur=0.5 / ip_ratio=1.40 / pb_ratio=1.30 / aq=1:1.00
Default : Да
Forced : Нет
Аудио #1
Идентификатор : 2
Формат : AC-3
Формат/Информация : Audio Coding 3
Расширение режима : CM (complete main)
Параметр Endianness формата : Big
Идентификатор кодека : A_AC3
Продолжительность : 1 ч. 43 м.
Вид битрейта : Постоянный
Битрейт : 448 Кбит/сек
Каналы : 6 каналов
Расположение каналов : Front: L C R, Side: L R, LFE
Частота : 48,0 КГц
Битовая глубина : 16 бит
Метод сжатия : С потерями
Размер потока : 332 Мбайт (15%)
Язык : Russian
Default : Да
Forced : Нет
Аудио #2
Идентификатор : 3
Формат : AC-3
Формат/Информация : Audio Coding 3
Расширение режима : CM (complete main)
Параметр Endianness формата : Big
Идентификатор кодека : A_AC3
Продолжительность : 1 ч. 43 м.
Вид битрейта : Постоянный
Битрейт : 448 Кбит/сек
Каналы : 6 каналов
Расположение каналов : Front: L C R, Side: L R, LFE
Частота : 48,0 КГц
Битовая глубина : 16 бит
Метод сжатия : С потерями
Размер потока : 332 Мбайт (15%)
Язык : English
Default : Нет
Forced : Нет
Меню
00:00:00.000 : en:Chapter 1
00:03:41.600 : en:Chapter 2
00:06:33.240 : en:Chapter 3
00:09:11.880 : en:Chapter 4
00:11:45.920 : en:Chapter 5
00:16:05.160 : en:Chapter 6
00:20:20.200 : en:Chapter 7
00:25:01.280 : en:Chapter 8
00:27:24.560 : en:Chapter 9
00:31:45.560 : en:Chapter 10
00:33:47.840 : en:Chapter 11
00:35:04.480 : en:Chapter 12
00:40:23.680 : en:Chapter 13
00:42:06.640 : en:Chapter 14
00:46:19.600 : en:Chapter 15
00:47:53.120 : en:Chapter 16
00:51:24.200 : en:Chapter 17
00:54:28.720 : en:Chapter 18
00:56:00.240 : en:Chapter 19
00:58:59.800 : en:Chapter 20
01:02:14.800 : en:Chapter 21
01:05:07.280 : en:Chapter 22
01:08:59.160 : en:Chapter 23
01:12:47.600 : en:Chapter 24


_________________



реклама партнёра


Вернуться к началу
 Профиль Отправить личное сообщение  
 
   Похожие торренты   Автор   Торрент   Размер 
В этой теме нет новых непрочитанных сообщений. Городские легенды 2: Последний отрезок / Urban legends 2: Final Cut [Ужасы, триллер, слэшер, 2000] WEB-DL 720p, Dvo+Sub

salma3

15 | 3

3.19 ГБ

В этой теме нет новых непрочитанных сообщений. Городские легенды / Urban Legend [ужасы, триллер, детектив, 1998] BDRip 1080p, Mvo

salma3

19 | 5

7.95 ГБ

В этой теме нет новых непрочитанных сообщений. Кровавая луна / Bloody Moon [ужасы, 1981] BDRip, Avo

salma3

74 | 26

1.46 ГБ

В этой теме нет новых непрочитанных сообщений. Сиеста / Siesta (Мэри Ламберт / Mary Lambert) [1987г., драма, триллер, экранизация, DVDRip]MVO

Alfredovich

0 | 4

1.37 ГБ

В этой теме нет новых непрочитанных сообщений. Кровавая луна / Die Säge des Todes / Bloody moon [Ужасы, 1981] BDRemux 1080p, Avo

salma3

3 | 3

16.17 ГБ

В этой теме нет новых непрочитанных сообщений. Паранормальная больница: Месть тифозной Мэри / Paranormal Asylum: The Revenge of Typhoid Mary [ужасы, 2013] HDRip, dvo

Dracon

3 | 2

1.47 ГБ

В этой теме нет новых непрочитанных сообщений. Мэри Ком / Mary Kom [Драма, биография, спорт, 2014] DVDRip, Sub

salma3

0 | 3

1.42 ГБ


Начать новую тему Ответить на тему  [ 1 сообщение ] 




Для Мосгорсуда, Роскомнадзора и рекламодателей:: mosgorsud-torrent[собачка]yandex.ru