Торрент файл
скачать торрент магнет ссылка Добавлен: 11 апр 2016, 13:25
Размер: 2.81 ГБ
Сидеров: 89
Личеров: 10
Статус: (salma3)
Автор

СообщениеДобавлено: 11 апр 2016, 13:25 

Не в сети
Супермодератор
Аватара пользователя
Дата регистрации:
15 фев 2012, 16:44
Возраст: 27
Спасибо: 6235 / 2127
Сообщения: 34066
Производство: США / Sony Pictures
Жанр: Боевик, Комедия, Приключения
Режиссер: Бетти Томас

Актеры: Эдди Мёрфи, Оуэн Уилсон, Фамке Янссен, Малкольм МакДауэлл, Гэри Коул, Фил Льюис, Вив Ликок, Кейт Даллас, Тейт Тейлор, Линда Бойд, Билл Монди, Ларри Мерчант, Шуга Рэй Леонард, Джимми Леннон мл.

Описание:
Мир организованной преступности бросает новый вызов. Похищен новейший самолет-невидимка, и правительство США посылает команду из двух непобедимых бойцов - суперагента Алекса Скотта и чемпиона по боксу Келли Робинсона. Необходимо во что бы то ни стало вернуть попавший в руки Арнольда Гундарса, подпольного торговца элитным вооружением, прототип истребителя нового поколения и сделать это до того, как он станет смертельной игрушкой в руках злодеев...



Возраст: 12+ (зрителям, достигшим 12 лет)
Рейтинг MPAA: PG-13 (детям до 13 лет просмотр нежелателен)
Дата мировой премьеры: 23 октября 2002
Дата российской премьеры: 8 января 2003, «Каскад»
Дата выхода DVD/Blu-ray релиза: 10 апреля 2003, «Columbia/Sony»
Релиз от: K.E.N (NNM-CLUB)
Продолжительность: 01:36:35
Качество видео: WEB-DLRip
Перевод: Дублированный, профессиональный многоголосый, профессиональный двухголосый, авторский (А.Дольский)
Язык субтитров: Русский, английский
Вид субтитров: Вшитые отключаемые
Видео: AVC, 1024x576 (16:9), 23.976 fps, 2 250 Kbps (0.159 bit/pixel)
Аудио #1: AC-3, 48.0 KHz, 6 ch, 448 Kbps, CBR (Russian) - дубляж
Аудио #2: AC-3, 48.0 KHz, 6 ch, 448 Kbps, CBR (Russian) - многоголосый
Аудио #3: AC-3, 48.0 KHz, 2 ch, 192 Kbps, CBR (Russian) - двухголосый Garsu Pasaulis
Аудио #4: AC-3, 48.0 KHz, 2 ch, 192 Kbps, CBR (Russian) - двухголосый Парус Видео
Аудио #5: AC-3, 48.0 KHz, 2 ch, 192 Kbps, CBR (Russian) - авторский
Аудио #6: AC-3, 48.0 KHz, 6 ch, 448 Kbps, CBR (English) - оригинал
[code]
Формат : Matroska
Версия формата : Version 2
Размер файла : 2,81 Гбайт
Продолжительность : 1 ч. 36 м.
Общий поток : 4171 Кбит/сек
Название фильма :
Дата кодирования : UTC 2016-04-09 14:53:50
Программа кодирования : mkvmerge v5.3.0 ('I could have danced') built on Feb 9 2012 10:38:07
Библиотека кодирования : libebml v1.2.3 + libmatroska v1.3.0
DURATION : 01:29:55.240000000
NUMBER_OF_FRAMES : 1439
NUMBER_OF_BYTES : 58634
_STATISTICS_WRITING_APP : mkvmerge v7.7.0 ('Six Voices') 64bit built on Feb 28 2015 23:39:33
_STATISTICS_WRITING_DATE_UTC : 2015-03-20 18:55:43
_STATISTICS_TAGS : BPS DURATION NUMBER_OF_FRAMES NUMBER_OF_BYTES
Attachment : Yes
Видео
Идентификатор : 1
Формат : AVC
Формат/Информация : Advanced Video Codec
Профиль формата : High@L4.1
Параметр CABAC формата : Да
Параметр ReFrames формата : 9 кадров
Идентификатор кодека : V_MPEG4/ISO/AVC
Продолжительность : 1 ч. 36 м.
Битрейт : 2250 Кбит/сек
Ширина : 1024 пикселя
Высота : 576 пикселей
Соотношение сторон : 16:9
Режим частоты кадров : Постоянный
Частота кадров : 23,976 кадра/сек
Цветовое пространство : YUV
Субдискретизация насыщенности : 4:2:0
Битовая глубина : 8 бит
Тип развёртки : Прогрессивная
Бит/(Пиксели*Кадры) : 0.159
Размер потока : 1,46 Гбайт (52%)
Библиотека кодирования : x264 core 146 r2538 121396c
Настройки программы : cabac=1 / ref=9 / deblock=1:-3:-3 / analyse=0x3:0x133 / me=umh / subme=10 / psy=1 / psy_rd=1.00:0.15 / mixed_ref=1 / me_range=32 / chroma_me=1 / trellis=2 / 8x8dct=1 / cqm=0 / deadzone=21,11 / fast_pskip=0 / chroma_qp_offset=-3 / threads=12 / lookahead_threads=2 / sliced_threads=0 / nr=0 / decimate=0 / interlaced=0 / bluray_compat=0 / constrained_intra=0 / bframes=7 / b_pyramid=2 / b_adapt=2 / b_bias=0 / direct=3 / weightb=1 / open_gop=0 / weightp=2 / keyint=240 / keyint_min=23 / scenecut=40 / intra_refresh=0 / rc=2pass / mbtree=0 / bitrate=2250 / ratetol=1.0 / qcomp=0.60 / qpmin=0 / qpmax=69 / qpstep=4 / cplxblur=20.0 / qblur=0.5 / ip_ratio=1.40 / pb_ratio=1.30 / aq=1:0.90
Default : Да
Forced : Нет
Аудио #1
Идентификатор : 2
Формат : AC-3
Формат/Информация : Audio Coding 3
Расширение режима : CM (complete main)
Параметр Endianness формата : Big
Идентификатор кодека : A_AC3
Продолжительность : 1 ч. 36 м.
Вид битрейта : Постоянный
Битрейт : 448 Кбит/сек
Каналы : 6 каналов
Расположение каналов : Front: L C R, Side: L R, LFE
Частота : 48,0 КГц
Битовая глубина : 16 бит
Метод сжатия : С потерями
Размер потока : 310 Мбайт (11%)
Заголовок : Дубляж
Язык : Russian
Default : Да
Forced : Нет
Аудио #2
Идентификатор : 3
Формат : AC-3
Формат/Информация : Audio Coding 3
Расширение режима : CM (complete main)
Параметр Endianness формата : Big
Идентификатор кодека : A_AC3
Продолжительность : 1 ч. 36 м.
Вид битрейта : Постоянный
Битрейт : 448 Кбит/сек
Каналы : 6 каналов
Расположение каналов : Front: L C R, Side: L R, LFE
Частота : 48,0 КГц
Битовая глубина : 16 бит
Метод сжатия : С потерями
Размер потока : 310 Мбайт (11%)
Заголовок : Многоголосый
Язык : Russian
Default : Нет
Forced : Нет
Аудио #3
Идентификатор : 4
Формат : AC-3
Формат/Информация : Audio Coding 3
Расширение режима : CM (complete main)
Параметр Endianness формата : Big
Идентификатор кодека : A_AC3
Продолжительность : 1 ч. 36 м.
Вид битрейта : Постоянный
Битрейт : 192 Кбит/сек
Каналы : 2 канала
Расположение каналов : Front: L R
Частота : 48,0 КГц
Битовая глубина : 16 бит
Метод сжатия : С потерями
Размер потока : 133 Мбайт (5%)
Заголовок : Двухголосый - Garsu Pasaulis
Язык : Russian
Default : Нет
Forced : Нет
Аудио #4
Идентификатор : 5
Формат : AC-3
Формат/Информация : Audio Coding 3
Расширение режима : CM (complete main)
Параметр Endianness формата : Big
Идентификатор кодека : A_AC3
Продолжительность : 1 ч. 36 м.
Вид битрейта : Постоянный
Битрейт : 192 Кбит/сек
Каналы : 2 канала
Расположение каналов : Front: L R
Частота : 48,0 КГц
Битовая глубина : 16 бит
Метод сжатия : С потерями
Размер потока : 133 Мбайт (5%)
Заголовок : Двухголосый - Парус Видео
Язык : Russian
Default : Нет
Forced : Нет
Аудио #5
Идентификатор : 6
Формат : AC-3
Формат/Информация : Audio Coding 3
Расширение режима : CM (complete main)
Параметр Endianness формата : Big
Идентификатор кодека : A_AC3
Продолжительность : 1 ч. 36 м.
Вид битрейта : Постоянный
Битрейт : 192 Кбит/сек
Каналы : 2 канала
Расположение каналов : Front: L R
Частота : 48,0 КГц
Битовая глубина : 16 бит
Метод сжатия : С потерями
Размер потока : 133 Мбайт (5%)
Заголовок : Авторский - Андрей Дольский
Язык : Russian
Default : Нет
Forced : Нет
Аудио #6
Идентификатор : 7
Формат : AC-3
Формат/Информация : Audio Coding 3
Расширение режима : CM (complete main)
Параметр Endianness формата : Big
Идентификатор кодека : A_AC3
Продолжительность : 1 ч. 36 м.
Вид битрейта : Постоянный
Битрейт : 448 Кбит/сек
Каналы : 6 каналов
Расположение каналов : Front: L C R, Side: L R, LFE
Частота : 48,0 КГц
Битовая глубина : 16 бит
Метод сжатия : С потерями
Размер потока : 310 Мбайт (11%)
Язык : English
Default : Нет
Forced : Нет
Текст #1
Идентификатор : 8
Формат : UTF-8
Идентификатор кодека : S_TEXT/UTF8
Идентификатор кодека/Информация : UTF-8 Plain Text
Язык : Russian
Default : Нет
Forced : Нет
Текст #2
Идентификатор : 9
Формат : UTF-8
Идентификатор кодека : S_TEXT/UTF8
Идентификатор кодека/Информация : UTF-8 Plain Text
Язык : English
Default : Нет
Forced : Нет
Меню
00:00:00.000 : en:1
00:07:46.000 : en:2
00:12:30.000 : en:3
00:19:06.000 : en:4
00:27:04.000 : en:5
00:33:37.000 : en:6
00:41:23.000 : en:7
00:48:05.000 : en:8
00:55:16.000 : en:9
01:00:39.000 : en:10
01:04:15.000 : en:11
01:12:02.000 : en:12
01:17:32.000 : en:13
01:20:52.000 : en:14
01:25:32.000 : en:15
01:27:26.000 : en:16


_________________
Проголосуй за трекер Открытый торрент трекер - RUS-MEDIA.ORG

Проголосуй Открытый торрент трекер - RUS-MEDIA.ORG



реклама партнёра


Вернуться к началу
 Профиль Отправить личное сообщение  
 
   Похожие торренты   Автор   Торрент   Размер 
В этой теме нет новых непрочитанных сообщений. Обмануть всех / Я - Шпион / I Spy [Боевик, триллер, комедия, 2002] HDTV 1080i, Dub

salma3

105 | 51

8.14 ГБ

В этой теме нет новых непрочитанных сообщений. Обмануть всех / I Spy [боевик, триллер, комедия, приключения, 2002] WEB-DLRip, Dub

salma3

4 | 2

1.46 ГБ

В этой теме нет новых непрочитанных сообщений. Шпион / Spy / Расширенная версия ( Пол Фиг) [2015 , Боевик, Комедия, Криминал , WEB-DLRip-AVC 7200p] [Dub Line Чистый звук]

Враг Нароода

13 | 2

5.08 ГБ

В этой теме нет новых непрочитанных сообщений. Приключения Плуто Нэша / The Adventures of Pluto Nash [фантастика, боевик, комедия, 2002] WEB-DLRip, Dub

salma3

59 | 26

1.47 ГБ

В этой теме нет новых непрочитанных сообщений. Мастер-шпион / MeesterSpion [приключения, комедия, семейный, 2016] DVDRip, Mvo

salma3

549 | 49

1.42 ГБ

В этой теме нет новых непрочитанных сообщений. Морское приключение / Boat Trip [комедия, приключения, 2002] WEB-DLRip-AVC, Dub+Mvo+Sub

salma3

81 | 7

2.17 ГБ

В этой теме нет новых непрочитанных сообщений. К-9 III: Частные детективы / K-9: P.I. [Комедия, Боевик, 2002] WEB-DLRip-AVC, Mvo+Dvo+Avo+Sub

salma3

73 | 32

2.18 ГБ


Начать новую тему Ответить на тему  [ 1 сообщение ] 




Для Мосгорсуда, Роскомнадзора и рекламодателей:: mosgorsud-torrent[собачка]yandex.ru