Торрент файл
скачать торрент магнет ссылка Добавлен: 09 апр 2016, 21:24
Размер: 1.53 ГБ
Сидеров: 153
Личеров: 6
Статус: (salma3)
Автор

СообщениеДобавлено: 09 апр 2016, 21:24 

В сети
Супермодератор
Аватара пользователя
Дата регистрации:
15 фев 2012, 16:44
Возраст: 27
Спасибо: 5121 / 2089
Сообщения: 17282
Перевод: Любительский (двухголосый) [Parovoz Production] (присутствуют вставки рекламы)
Субтитры: отсутствуют
Формат: HDRip-AVC, MKV, H.264, AC3
Страна: Великобритания
Режиссер: Алекс Брюэр, Бенжамин Брюэр
Жанр: триллер, криминал
Продолжительность: 01:31:43
Год выпуска: 2016

В ролях: Николас Кейдж, Элайджа Вуд, Джерри Льюис, Стивен Уильямс, Скай Феррейра, Кевин Уайзман, Лиза Гарднер, Кристи Беран, Джеффри Ховард, Томми Вегас

Описание: Нередко случается так, что те, кто должен защищать закон, сами же его и нарушают. Такими полицейскими оказались и герои фильма. Нечистые на руку напарники решают срубить по легкому большой куш, ограбив сейф из отдела улик - в нем хранится большая сумма денег наркоторговцев. Копы тщательно готовятся к предстоящей операции, но не подозревают, что с этого момента их жизнь подвергается серьезной опасности...

Рейтинг:


Видео: 1024х576 (16:9) 23,976 fps, AVC (х264), ~2000 Kbps avg, 0.141 bit/pixel
Аудио: 48.0 kHz, AC3 Dolby Digital, 6 channels (Front: L C R, Side: L R, LFE) ~384 kbps avg

Доп. информация: звук перевода Dolby Digital 5.1 [Parovoz Production]
Полноэкранное изображение (16:9) без "черных" полос. Рип с BDRip 1080р. Автор рипа: Д.И.С. Релиз группы:
    Общее
    Уникальный идентификатор : 242658059070948981436428061108552550522 (0xB68E3E0234C45A220EBBFAF702DF487A)
    Полное имя : D:\Video\...\doverie_rip_DIS_[tfile.me].mkv
    Формат : Matroska
    Версия формата : Version 2
    Размер файла : 1,53 Гбайт
    Продолжительность : 1 ч. 31 м.
    Общий поток : 2386 Кбит/сек
    Дата кодирования : UTC 2016-04-09 08:36:24 / UTC 2016-04-09 08:36:24
    Программа кодирования : Lavf54.63.104
    Библиотека кодирования : Lavf54.63.104 / Lavf54.63.104

    Видео
    Идентификатор : 1
    Формат : AVC
    Формат/Информация : Advanced Video Codec
    Профиль формата :
    Параметр CABAC формата : Да
    Параметр ReFrames формата : 2 кадра
    Идентификатор кодека : V_MPEG4/ISO/AVC
    Продолжительность : 1 ч. 31 м.
    Битрейт : 2000 Кбит/сек
    Ширина : 1024 пикселя
    Высота : 576 пикселей
    Соотношение сторон : 16:9
    Режим частоты кадров : Постоянный
    Частота кадров : 23,976 (24000/1001) кадра/сек
    Цветовое пространство : YUV
    Субдискретизация насыщенности : 4:2:0
    Битовая глубина : 8 бит
    Тип развёртки : Прогрессивная
    Бит/(Пиксели*Кадры) : 0.141
    Размер потока : 1,25 Гбайт (82%)
    Библиотека кодирования : x264 core 129
    Настройки программы : cabac=1 / ref=2 / deblock=1:0:0 / analyse=0x3:0x113 / me=hex / subme=6 / psy=1 / psy_rd=1.00:0.00 / mixed_ref=1 / me_range=16 / chroma_me=1 / trellis=0 / 8x8dct=1 / cqm=0 / deadzone=21,11 / fast_pskip=1 / chroma_qp_offset=-2 / threads=8 / lookahead_threads=1 / sliced_threads=0 / nr=0 / decimate=1 / interlaced=0 / bluray_compat=0 / constrained_intra=0 / bframes=0 / weightp=2 / keyint=250 / keyint_min=25 / scenecut=40 / intra_refresh=0 / rc_lookahead=40 / rc=2pass / mbtree=1 / bitrate=2000 / ratetol=1.0 / qcomp=0.60 / qpmin=10 / qpmax=51 / qpstep=4 / cplxblur=20.0 / qblur=0.5 / ip_ratio=1.41 / aq=1:1.00
    Default : Да
    Forced : Нет

    Аудио
    Идентификатор : 2
    Формат : AC-3
    Формат/Информация : Audio Coding 3
    Расширение режима : CM (complete main)
    Параметр Endianness формата : Big
    Идентификатор кодека : A_AC3
    Продолжительность : 1 ч. 31 м.
    Вид битрейта : Постоянный
    Битрейт : 384 Кбит/сек
    Каналы : 6 каналов
    Расположение каналов : Front: L C R, Side: L R, LFE
    Частота : 48,0 КГц
    Частота кадров : 31,250 кадров/сек (1536 spf)
    Битовая глубина : 16 бит
    Метод сжатия : С потерями
    Размер потока : 252 Мбайт (16%)
    Default : Да
    Forced : Нет




_________________



реклама партнёра


Вернуться к началу
 Профиль Отправить личное сообщение  
 
   Похожие торренты   Автор   Торрент   Размер 
В этой теме нет новых непрочитанных сообщений. Доверие / The Trust [триллер, криминал, 2016] HDRip, Avo

salma3

7562 | 630

1.45 ГБ

В этой теме нет новых непрочитанных сообщений. Конвой / Le convoi [Триллер, криминал, 2016] HDRip, Avo

salma3

316 | 27

745.48 МБ

В этой теме нет новых непрочитанных сообщений. Деньги / Money [триллер, криминал, 2016] HDRip, Mvo

salma3

319 | 32

1.37 ГБ

В этой теме нет новых непрочитанных сообщений. Три девятки / Triple 9 [криминал, драма, триллер, 2016] HDRip, avo

marya111

108 | 15

1.45 ГБ

В этой теме нет новых непрочитанных сообщений. Сто лет прощения / Cien años de perdón [триллер, криминал, 2016] HDRip, Avo

salma3

1269 | 148

1.46 ГБ

В этой теме нет новых непрочитанных сообщений. Нерв / Nerve [триллер, криминал, детектив, 2016] HDRip, Dub [Line]

salma3

10814 | 1912

1.37 ГБ

В этой теме нет новых непрочитанных сообщений. Я есть гнев / I Am Wrath [боевик, триллер, драма, криминал, 2016] HDRip, dvo

marya111

3794 | 419

1.41 ГБ


Начать новую тему Ответить на тему  [ 1 сообщение ] 




Для Мосгорсуда, Роскомнадзора и рекламодателей:: mosgorsud-torrent[собачка]yandex.ru