Торрент файл
скачать торрент магнет ссылка Добавлен: 05 апр 2016, 11:39
Размер: 2.85 ГБ
Сидеров: 17
Личеров: 4
Статус: (salma3)
Автор

СообщениеДобавлено: 05 апр 2016, 11:39 

Не в сети
Супермодератор
Аватара пользователя
Дата регистрации:
15 фев 2012, 16:44
Возраст: 27
Спасибо: 5135 / 2089
Сообщения: 17409
Производство: США, Канада, 21st Century Film Corporation, Death Wish 5 Productions
Жанр: Боевик, Криминал, Триллер
Режиссер: Аллан А. Голдштейн

Актеры: Чарльз Бронсон, Лесли-Энн Даун, Майкл Паркс, Чак Шамата, Кевин Ланд, Роберт Джой, Сол Рубинек, Мигель Сандовал, Кеннет Уэлш, Лиза Инуе, Эрика Ланкастер, Джеффресон Мэппин, Майкл Данстон, Клер Ранкин, Шэролин Спэрроу, Анна Старнино

Описание:
Пол Керси возвращается в Нью-Йорк с твердым намерением начать нормальную человеческую жизнь без погонь и перестрелок вместе со своей невестой Оливией Риджент. Но прекрасная мечта так и остается мечтой. Оливию убивают. Пол уверен, что это дело рук ее бывшего мужа Томми О Ши — главаря мафии. Отлично понимая, что правосудие в таких делах бессильно, Пол вновь берется за оружие, чтобы самому разобраться с бандитами…



Релиз от: K.E.N (NNM-CLUB)
Продолжительность: 01:31:14
Качество видео: BDRip
Перевод: Профессиональный (многоголосый, закадровый), профессиональный (двухголосый, закадровый), авторский (одноголосый, закадровый)
Язык субтитров: Английский
Вид субтитров: Вшитые отключаемые
Видео: AVC, 1024x556 (16:9), 25.000 fps, 3 500 Kbps (0.246 bit/pixel)
Аудио #1: AC-3, 48.0 KHz, 2 ch, 192 Kbps, CBR (Russian) - многоголосый (5 канал)
Аудио #2: AC-3, 48.0 KHz, 2 ch, 192 Kbps, CBR (Russian) - двухголосый (ТВ-3)
Аудио #3: AC-3, 48.0 KHz, 2 ch, 192 Kbps, CBR (Russian) - авторский (А.Гаврилов)
Аудио #4: AC-3, 48.0 KHz, 2 ch, 192 Kbps, CBR (Russian) - авторский (А.Савченко)
Аудио #5: AC-3, 48.0 KHz, 2 ch, 192 Kbps, CBR (English) - оригинал
Формат : Matroska
Версия формата : Version 2
Размер файла : 2,85 Гбайт
Продолжительность : 1 ч. 31 м.
Общий поток : 4464 Кбит/сек
Дата кодирования : UTC 2016-04-03 14:19:18
Программа кодирования : mkvmerge v5.3.0 ('I could have danced') built on Feb 9 2012 10:38:07
Библиотека кодирования : libebml v1.2.3 + libmatroska v1.3.0
Attachment : Yes
Видео
Идентификатор : 1
Формат : AVC
Формат/Информация : Advanced Video Codec
Профиль формата : High@L4.1
Параметр CABAC формата : Да
Параметр ReFrames формата : 12 кадров
Идентификатор кодека : V_MPEG4/ISO/AVC
Продолжительность : 1 ч. 31 м.
Битрейт : 3500 Кбит/сек
Ширина : 1024 пикселя
Высота : 556 пикселей
Соотношение сторон : 1,85:1
Режим частоты кадров : Постоянный
Частота кадров : 25,000 кадров/сек
Цветовое пространство : YUV
Субдискретизация насыщенности : 4:2:0
Битовая глубина : 8 бит
Тип развёртки : Прогрессивная
Бит/(Пиксели*Кадры) : 0.246
Размер потока : 2,18 Гбайт (77%)
Библиотека кодирования : x264 core 146 r2538 121396c
Настройки программы : cabac=1 / ref=12 / deblock=1:-2:-2 / analyse=0x3:0x133 / me=umh / subme=11 / psy=1 / psy_rd=1.00:0.00 / mixed_ref=1 / me_range=32 / chroma_me=1 / trellis=2 / 8x8dct=1 / cqm=0 / deadzone=21,11 / fast_pskip=0 / chroma_qp_offset=-2 / threads=2 / lookahead_threads=2 / sliced_threads=0 / nr=0 / decimate=0 / interlaced=0 / bluray_compat=0 / constrained_intra=0 / bframes=8 / b_pyramid=2 / b_adapt=2 / b_bias=0 / direct=3 / weightb=1 / open_gop=0 / weightp=2 / keyint=240 / keyint_min=23 / scenecut=40 / intra_refresh=0 / rc=2pass / mbtree=0 / bitrate=3500 / ratetol=1.0 / qcomp=0.60 / qpmin=0 / qpmax=69 / qpstep=4 / cplxblur=20.0 / qblur=0.5 / ip_ratio=1.40 / pb_ratio=1.30 / aq=1:1.00
Default : Да
Forced : Нет
Аудио #1
Идентификатор : 2
Формат : AC-3
Формат/Информация : Audio Coding 3
Расширение режима : CM (complete main)
Параметр Endianness формата : Big
Идентификатор кодека : A_AC3
Продолжительность : 1 ч. 31 м.
Вид битрейта : Постоянный
Битрейт : 192 Кбит/сек
Каналы : 2 канала
Расположение каналов : Front: L R
Частота : 48,0 КГц
Битовая глубина : 16 бит
Метод сжатия : С потерями
Размер потока : 125 Мбайт (4%)
Заголовок : профессиональный многоголосый (5 канал)
Язык : Russian
Default : Да
Forced : Нет
Аудио #2
Идентификатор : 3
Формат : AC-3
Формат/Информация : Audio Coding 3
Расширение режима : CM (complete main)
Параметр Endianness формата : Big
Идентификатор кодека : A_AC3
Продолжительность : 1 ч. 31 м.
Вид битрейта : Постоянный
Битрейт : 192 Кбит/сек
Каналы : 2 канала
Расположение каналов : Front: L R
Частота : 48,0 КГц
Битовая глубина : 16 бит
Метод сжатия : С потерями
Размер потока : 125 Мбайт (4%)
Заголовок : профессиональный двухголосый (ТВ-3)
Язык : Russian
Default : Нет
Forced : Нет
Аудио #3
Идентификатор : 4
Формат : AC-3
Формат/Информация : Audio Coding 3
Расширение режима : CM (complete main)
Параметр Endianness формата : Big
Идентификатор кодека : A_AC3
Продолжительность : 1 ч. 31 м.
Вид битрейта : Постоянный
Битрейт : 192 Кбит/сек
Каналы : 2 канала
Расположение каналов : Front: L R
Частота : 48,0 КГц
Битовая глубина : 16 бит
Метод сжатия : С потерями
Размер потока : 125 Мбайт (4%)
Заголовок : авторский (Андрей Гаврилов)
Язык : Russian
Default : Нет
Forced : Нет
Аудио #4
Идентификатор : 5
Формат : AC-3
Формат/Информация : Audio Coding 3
Расширение режима : CM (complete main)
Параметр Endianness формата : Big
Идентификатор кодека : A_AC3
Продолжительность : 1 ч. 31 м.
Вид битрейта : Постоянный
Битрейт : 192 Кбит/сек
Каналы : 2 канала
Расположение каналов : Front: L R
Частота : 48,0 КГц
Битовая глубина : 16 бит
Метод сжатия : С потерями
Размер потока : 125 Мбайт (4%)
Заголовок : авторский (Алексей Савченко)
Язык : Russian
Default : Нет
Forced : Нет
Аудио #5
Идентификатор : 6
Формат : AC-3
Формат/Информация : Audio Coding 3
Расширение режима : CM (complete main)
Параметр Endianness формата : Big
Идентификатор кодека : A_AC3
Продолжительность : 1 ч. 31 м.
Вид битрейта : Постоянный
Битрейт : 192 Кбит/сек
Каналы : 2 канала
Расположение каналов : Front: L R
Частота : 48,0 КГц
Битовая глубина : 16 бит
Метод сжатия : С потерями
Размер потока : 125 Мбайт (4%)
Язык : English
Default : Нет
Forced : Нет
Текст
Идентификатор : 7
Формат : PGS
Режим смешивания : zlib
Идентификатор кодека : S_HDMV/PGS
Идентификатор кодека/Информация : The same subtitle format used on BDs/HD-DVDs
Язык : English
Default : Да
Forced : Нет
Меню
00:00:00.000 : :Chapter 01
00:12:05.599 : :Chapter 02
00:22:23.720 : :Chapter 03
00:32:46.640 : :Chapter 04
00:42:15.480 : :Chapter 05
00:52:19.280 : :Chapter 06
01:01:49.160 : :Chapter 07
01:10:33.920 : :Chapter 08
01:15:06.640 : :Chapter 09
01:28:15.479 : :Chapter 10


_________________



реклама партнёра


Вернуться к началу
 Профиль Отправить личное сообщение  
 
   Похожие торренты   Автор   Торрент   Размер 
В этой теме нет новых непрочитанных сообщений. Жажда смерти 2 / Death Wish II [Боевик, триллер, 1982] BDRip-AVC, Mvo+Avo

salma3

14 | 5

2.69 ГБ

В этой теме нет новых непрочитанных сообщений. Жажда смерти 4: Наказание/ Death Wish 4: The Crackdown [Боевик, триллер, 1987] BDRip-AVC, Mvo+Avo

salma3

16 | 2

3.02 ГБ

В этой теме нет новых непрочитанных сообщений. Поцелуй смерти / Kiss Of Death [боевик, триллер, криминал, 1994] DVDRip, Mvo

salma3

8 | 2

1.46 ГБ

В этой теме нет новых непрочитанных сообщений. Посланник смерти / Messenger of Death [боевик, триллер, криминал, 1988] BDRip 720p, Mvo

salma3

22 | 27

6.35 ГБ

В этой теме нет новых непрочитанных сообщений. Бой до смерти / Death Match [боевик, драма, 1994] DVDRip, Avo

salma3

22 | 4

1.37 ГБ

В этой теме нет новых непрочитанных сообщений. Поезд смерти / Death Train [боевик, триллер, 1993] BDRip 1080p, Dvo+Avo

salma3

48 | 6

9.26 ГБ

В этой теме нет новых непрочитанных сообщений. Машина смерти / Death Machine [Фантастика, 1994] DVD-9, Avo

salma3

75 | 13

7.55 ГБ


Начать новую тему Ответить на тему  [ 1 сообщение ] 




Для Мосгорсуда, Роскомнадзора и рекламодателей:: mosgorsud-torrent[собачка]yandex.ru