Торрент файл
скачать торрент магнет ссылка Добавлен: 04 апр 2016, 20:43
Размер: 2.18 ГБ
Сидеров: 21
Личеров: 2
Статус: (salma3)
Автор

СообщениеДобавлено: 04 апр 2016, 20:43 

Не в сети
Супермодератор
Аватара пользователя
Дата регистрации:
15 фев 2012, 16:44
Возраст: 27
Спасибо: 5143 / 2090
Сообщения: 17495
Перевод: Любительский (двухголосый закадровый) [DeadSno & den904]
Субтитры: Русские, Английские
Формат: BDRip-AVC, MKV, H.264, AC3
Страна: Австралия
Режиссер: Грег МакЛин
Жанр: ужасы, триллер
Продолжительность: 01:46:14
Год выпуска: 2013
В ролях: Джон Джэррэт, Райан Корр, Шеннон Эшлин, Филлипп Клаус, Шэйн Коннор, Бен Джеррард, Герард Кеннеди, Энни Байрон, Хлоя Борхэм
Описание: Туристы Рутгер, Катарина и Пауль приезжают к знаменитой австралийской достопримечательности, кратеру потухшего вулкана Волчья Яма. Их мечты о приключениях вскоре обращаются в чудовищную реальность, когда они сталкиваются с печально известным местным жителем, садистом-убийцей Миком Тэйлором…



Видео: 1152x490 (2.35:1), 23.976 fps, AVC (х264), , ~ 2042 Kbps, 0.151 bit/pixel
Аудио #1: Русский:48 kHz, AC3 Dolby Digital, 3/2 (L,C,R,l,r) + LFE ch, ~448 kbps avg [Любительский (двухголосый закадровый)] [DeadSno & den904]
Аудио #2: Английский:48 kHz, AC3 Dolby Digital, 3/2 (L,C,R,l,r) + LFE ch, ~448 kbps avg [Оригинал]
General
Unique ID : 223004063970211451000451086526438649486 (0xA7C5053C581613A8A8B40EC602372E8E)
Complete name : C:\Users\Юрик\Desktop\Wolf.Creek.2.2013.BDRip-AVC.DVO_[tfile.ru].mkv
Format : Matroska
Format version : Version 4 / Version 2
File size : 2.18 GiB
Duration : 1h 46mn
Overall bit rate : 2 940 Kbps
Encoded date : UTC 2016-04-04 11:17:48
Writing application : mkvmerge v7.4.0 ('Circles') 64bit built on Dec 12 2014 12:19:56
Writing library : libebml v1.3.0 + libmatroska v1.4.1

Video
ID : 1
Format : AVC
Format/Info : Advanced Video Codec
Format profile :
Format settings, CABAC : Yes
Format settings, ReFrames : 12 frames
Codec ID : V_MPEG4/ISO/AVC
Duration : 1h 46mn
Bit rate : 2 042 Kbps
Width : 1 152 pixels
Height : 490 pixels
Display aspect ratio : 2.35:1
Frame rate mode : Constant
Frame rate : 23.976 (24000/1001) fps
Color space : YUV
Chroma subsampling : 4:2:0
Bit depth : 8 bits
Scan type : Progressive
Bits/(Pixel*Frame) : 0.151
Stream size : 1.52 GiB (69%)
Title : Wolf Creek 2
Writing library : x264 core 135 r2345 f0c1c53
Encoding settings : cabac=1 / ref=12 / deblock=1:-3:-3 / analyse=0x3:0x113 / me=umh / subme=11 / psy=1 / psy_rd=1.10:0.00 / mixed_ref=1 / me_range=32 / chroma_me=1 / trellis=2 / 8x8dct=1 / cqm=0 / deadzone=21,11 / fast_pskip=1 / chroma_qp_offset=-2 / threads=6 / lookahead_threads=1 / sliced_threads=0 / nr=0 / decimate=1 / interlaced=0 / bluray_compat=0 / constrained_intra=0 / bframes=9 / b_pyramid=2 / b_adapt=2 / b_bias=0 / direct=3 / weightb=1 / open_gop=0 / weightp=2 / keyint=240 / keyint_min=23 / scenecut=40 / intra_refresh=0 / rc=2pass / mbtree=0 / bitrate=2042 / ratetol=1.0 / qcomp=0.60 / qpmin=0 / qpmax=69 / qpstep=4 / cplxblur=20.0 / qblur=0.5 / ip_ratio=1.40 / pb_ratio=1.30 / aq=2:0.90
Default : Yes
Forced : No

Audio #1
ID : 2
Format : AC-3
Format/Info : Audio Coding 3
Mode extension : CM (complete main)
Format settings, Endianness : Big
Codec ID : A_AC3
Duration : 1h 46mn
Bit rate mode : Constant
Bit rate : 448 Kbps
Channel(s) : 6 channels
Channel positions : Front: L C R, Side: L R, LFE
Sampling rate : 48.0 KHz
Frame rate : 31.250 fps (1536 spf)
Compression mode : Lossy
Stream size : 340 MiB (15%)
Default : Yes
Forced : No

Audio #2
ID : 3
Format : AC-3
Format/Info : Audio Coding 3
Mode extension : CM (complete main)
Format settings, Endianness : Big
Codec ID : A_AC3
Duration : 1h 46mn
Bit rate mode : Constant
Bit rate : 448 Kbps
Channel(s) : 6 channels
Channel positions : Front: L C R, Side: L R, LFE
Sampling rate : 48.0 KHz
Frame rate : 31.250 fps (1536 spf)
Compression mode : Lossy
Stream size : 341 MiB (15%)
Title : ENG AC3 448 6ch original
Language : English
Default : No
Forced : No

Text #1
ID : 4
Format : UTF-8
Codec ID : S_TEXT/UTF8
Codec ID/Info : UTF-8 Plain Text
Duration : 1h 40mn
Bit rate : 42 bps
Count of elements : 668
Stream size : 31.2 KiB (0%)
Title : RUS Sub Full
Language : Russian
Default : No
Forced : No

Text #2
ID : 5
Format : UTF-8
Codec ID : S_TEXT/UTF8
Codec ID/Info : UTF-8 Plain Text
Duration : 1h 37mn
Bit rate : 28 bps
Count of elements : 702
Stream size : 20.1 KiB (0%)
Title : ENG Sub Full
Language : English
Default : No
Forced : No

Text #3
ID : 6
Format : UTF-8
Codec ID : S_TEXT/UTF8
Codec ID/Info : UTF-8 Plain Text
Duration : 1h 38mn
Bit rate : 31 bps
Count of elements : 874
Stream size : 22.8 KiB (0%)
Title : ENG Sub SDH
Language : English
Default : No
Forced : No

Menu
00:00:00.000 : :Chapter 01
00:11:50.626 : :Chapter 02
00:21:15.773 : :Chapter 03
00:31:41.064 : :Chapter 04
00:35:12.692 : :Chapter 05
00:44:41.510 : :Chapter 06
00:53:41.007 : :Chapter 07
00:59:07.750 : :Chapter 08
01:10:23.841 : :Chapter 09
01:19:18.250 : :Chapter 10
01:32:20.697 : :Chapter 11




_________________



реклама партнёра


Вернуться к началу
 Профиль Отправить личное сообщение  
 
   Похожие торренты   Автор   Торрент   Размер 
В этой теме нет новых непрочитанных сообщений. Волчья яма 2 / Wolf Creek 2 [ужасы, триллер, 2013] BDRip 720p, dvo

Dracon

31 | 3

4.51 ГБ

В этой теме нет новых непрочитанных сообщений. Волчья яма 2 / Wolf Creek 2 [ужасы, триллер, 2013] HDRip, dvo

Dracon

152 | 3

1.37 ГБ

В этой теме нет новых непрочитанных сообщений. Волчья яма 2 / Wolf Creek 2 [ужасы, триллер, 2013] WEB-DL 720p, dvo

Dracon

76 | 6

3.29 ГБ

В этой теме нет новых непрочитанных сообщений. Волчья яма 2 / Wolf Creek 2 [ужасы, триллер, 2013] WEB-DLRip, dvo

Dracon

1145 | 23

1.47 ГБ

В этой теме нет новых непрочитанных сообщений. Волчья яма / Wolf Creek [S01] [ужасы, триллер, драма, 2016] WEBRip, Avo

salma3

245 | 73

3.37 ГБ

В этой теме нет новых непрочитанных сообщений. Волчья яма / Wolf Creek [S01] [ужасы, триллер, драма, 2016] WEBRip 720р, Avo

salma3

134 | 38

2.43 ГБ

В этой теме нет новых непрочитанных сообщений. Волчья яма / Wolf creek (2005) BDRip 1080p, Mvo+Dvo+Avo+Sub

salma3

60 | 11

9.68 ГБ


Начать новую тему Ответить на тему  [ 1 сообщение ] 




Для Мосгорсуда, Роскомнадзора и рекламодателей:: mosgorsud-torrent[собачка]yandex.ru