Торрент файл
скачать торрент магнет ссылка Добавлен: 04 апр 2016, 12:56
Размер: 2.48 ГБ
Сидеров: 45
Личеров: 3
Статус: (salma3)
Автор

СообщениеДобавлено: 04 апр 2016, 12:56 

В сети
Супермодератор
Аватара пользователя
Дата регистрации:
15 фев 2012, 16:44
Возраст: 27
Спасибо: 5139 / 2089
Сообщения: 17429
Производство: Норвегия / Fantefilm, Film Väst
Жанр: Триллер, Ужасы
Режиссер: Миккел Бренне Сандемус

Актеры: Ида Мари Бакеруд, Ким С. Фалк Йоргенсен, Пал Стокка, Артур Бернинг, Нилс Джонсон

Описание:
Продолжение душераздирающей истории о резне, учиненной жестоким и кровожадным маньяком, среди холодных норвежских снегов. Выживет ли кто-нибудь из главных героев после новой встречи с серийным убийцей, орудующим ледорубом?



Релиз от: K.E.N (NNM-CLUB)
Продолжительность: 01:37:46
Качество видео: BDRip-AVC
Перевод: Одноголосый закадровый, любительский
Язык субтитров: Русский, английский
Вид субтитров: Вшитые отключаемые
Видео: AVC, 1024x428 (2.35:1), 24.000 fps, 2 422 Kbps (0.230 bit/pixel)
Аудио #1: AC-3, 48.0 KHz, 6 ch, 448 Kbps, CBR (Russian) - одноголосый RussianGuy27
Аудио #2: AC-3, 48.0 KHz, 2 ch, 192 Kbps, CBR (Russian) - одноголосый Steve Ag
Аудио #3: AC-3, 44.1 KHz, 2 ch, 192 Kbps, CBR (Russian) - одноголосый V@zz
Аудио #4: AC-3, 48.0 KHz, 6 ch, 384 Kbps, CBR (Norwegian) - оригинал
Формат : Matroska
Версия формата : Version 2
Размер файла : 2,48 Гбайт
Продолжительность : 1 ч. 37 м.
Общий поток : 3636 Кбит/сек
Дата кодирования : UTC 2016-04-03 04:16:51
Программа кодирования : mkvmerge v5.3.0 ('I could have danced') built on Feb 9 2012 10:38:07
Библиотека кодирования : libebml v1.2.3 + libmatroska v1.3.0
Attachment : Yes
Видео
Идентификатор : 1
Формат : AVC
Формат/Информация : Advanced Video Codec
Профиль формата : High@L4.1
Параметр CABAC формата : Да
Параметр ReFrames формата : 9 кадров
Идентификатор кодека : V_MPEG4/ISO/AVC
Продолжительность : 1 ч. 37 м.
Битрейт : 2422 Кбит/сек
Ширина : 1024 пикселя
Высота : 428 пикселей
Соотношение сторон : 2,40:1
Режим частоты кадров : Постоянный
Частота кадров : 24,000 кадра/сек
Цветовое пространство : YUV
Субдискретизация насыщенности : 4:2:0
Битовая глубина : 8 бит
Тип развёртки : Прогрессивная
Бит/(Пиксели*Кадры) : 0.230
Размер потока : 1,60 Гбайт (65%)
Библиотека кодирования : x264 core 146 r2538 121396c
Настройки программы : cabac=1 / ref=9 / deblock=1:-2:-2 / analyse=0x3:0x133 / me=umh / subme=10 / psy=1 / psy_rd=1.00:0.00 / mixed_ref=1 / me_range=32 / chroma_me=1 / trellis=2 / 8x8dct=1 / cqm=0 / deadzone=21,11 / fast_pskip=0 / chroma_qp_offset=-2 / threads=2 / lookahead_threads=2 / sliced_threads=0 / nr=0 / decimate=0 / interlaced=0 / bluray_compat=0 / constrained_intra=0 / bframes=6 / b_pyramid=2 / b_adapt=2 / b_bias=0 / direct=3 / weightb=1 / open_gop=0 / weightp=2 / keyint=240 / keyint_min=23 / scenecut=40 / intra_refresh=0 / rc=2pass / mbtree=0 / bitrate=2422 / ratetol=1.0 / qcomp=0.60 / qpmin=0 / qpmax=69 / qpstep=4 / cplxblur=20.0 / qblur=0.5 / ip_ratio=1.40 / pb_ratio=1.30 / aq=1:1.00
Default : Да
Forced : Нет
Аудио #1
Идентификатор : 2
Формат : AC-3
Формат/Информация : Audio Coding 3
Расширение режима : CM (complete main)
Параметр Endianness формата : Big
Идентификатор кодека : A_AC3
Продолжительность : 1 ч. 37 м.
Вид битрейта : Постоянный
Битрейт : 448 Кбит/сек
Каналы : 6 каналов
Расположение каналов : Front: L C R, Side: L R, LFE
Частота : 48,0 КГц
Битовая глубина : 16 бит
Метод сжатия : С потерями
Размер потока : 313 Мбайт (12%)
Заголовок : Сергей "Russianguy27" Сергеев
Язык : Russian
Default : Да
Forced : Нет
Аудио #2
Идентификатор : 3
Формат : AC-3
Формат/Информация : Audio Coding 3
Расширение режима : CM (complete main)
Параметр Endianness формата : Big
Идентификатор кодека : A_AC3
Продолжительность : 1 ч. 37 м.
Вид битрейта : Постоянный
Битрейт : 192 Кбит/сек
Каналы : 2 канала
Расположение каналов : Front: L R
Частота : 48,0 КГц
Битовая глубина : 16 бит
Метод сжатия : С потерями
Размер потока : 134 Мбайт (5%)
Заголовок : Steve Ag
Язык : Russian
Default : Нет
Forced : Нет
Аудио #3
Идентификатор : 4
Формат : AC-3
Формат/Информация : Audio Coding 3
Расширение режима : CM (complete main)
Параметр Endianness формата : Big
Идентификатор кодека : A_AC3
Продолжительность : 1 ч. 37 м.
Вид битрейта : Постоянный
Битрейт : 192 Кбит/сек
Каналы : 2 канала
Расположение каналов : Front: L R
Частота : 44,1 КГц
Битовая глубина : 16 бит
Метод сжатия : С потерями
Размер потока : 134 Мбайт (5%)
Заголовок : V@zz
Язык : Russian
Default : Нет
Forced : Нет
Аудио #4
Идентификатор : 5
Формат : AC-3
Формат/Информация : Audio Coding 3
Расширение режима : CM (complete main)
Параметр Endianness формата : Big
Идентификатор кодека : A_AC3
Продолжительность : 1 ч. 37 м.
Вид битрейта : Постоянный
Битрейт : 384 Кбит/сек
Каналы : 6 каналов
Расположение каналов : Front: L C R, Side: L R, LFE
Частота : 48,0 КГц
Битовая глубина : 16 бит
Метод сжатия : С потерями
Размер потока : 268 Мбайт (11%)
Язык : Norwegian
Default : Нет
Forced : Нет
Текст #1
Идентификатор : 6
Формат : UTF-8
Идентификатор кодека : S_TEXT/UTF8
Идентификатор кодека/Информация : UTF-8 Plain Text
Язык : Russian
Default : Нет
Forced : Нет
Текст #2
Идентификатор : 7
Формат : ASS
Идентификатор кодека : S_TEXT/ASS
Идентификатор кодека/Информация : Advanced Sub Station Alpha
Метод сжатия : Без потерь
Язык : English
Default : Нет
Forced : Нет
Текст #3
Идентификатор : 8
Формат : UTF-8
Идентификатор кодека : S_TEXT/UTF8
Идентификатор кодека/Информация : UTF-8 Plain Text
Заголовок : SDH
Язык : English
Default : Нет
Forced : Нет
Меню
00:00:00.000 : en:00:00:00.000
00:09:14.917 : en:00:09:14.917
00:17:27.542 : en:00:17:27.542
00:26:00.000 : en:00:26:00.000
00:33:52.917 : en:00:33:52.917
00:41:53.875 : en:00:41:53.875
00:51:32.000 : en:00:51:32.000
01:00:36.708 : en:01:00:36.708
01:09:23.375 : en:01:09:23.375
01:17:15.208 : en:01:17:15.208
01:22:02.708 : en:01:22:02.708
01:32:57.708 : en:01:32:57.708


_________________



реклама партнёра


Вернуться к началу
 Профиль Отправить личное сообщение  
 
   Похожие торренты   Автор   Торрент   Размер 
В этой теме нет новых непрочитанных сообщений. Остаться в живых: Воскрешение / Fritt vilt 2 [Триллер, Ужасы, 2008] HDRip-AVC, Dvo+Avo

salma3

34 | 3

2.61 ГБ

В этой теме нет новых непрочитанных сообщений. Остаться в живых / Stay Alive [ужасы, триллер, 2006] WEBDLRip, Dub

salma3

167 | 71

1.45 ГБ

В этой теме нет новых непрочитанных сообщений. Остаться в Живых / Lost [S01-06] (Джек Бендер, Дэниэл Эттиэс, Род Холкомб...) [Фантастика, фэнтези, триллер, драма, 2004-2010] BDRip-AVC, Dub [60 fps]

Dracon

19 | 136

227.21 ГБ

В этой теме нет новых непрочитанных сообщений. Единственный выживший (Остаться в живых) / Sole Survivor (Микаэл Саломон / Mikael Salomon) [2000г., Канада, триллер, драма, детектив, фантастика, SATRip] MVO

Alfredovich

12 | 3

2.18 ГБ

В этой теме нет новых непрочитанных сообщений. Гол живых мертвецов / Goal of the Dead [ужасы, комедия, 2014] BDRip 720p, avo

Dracon

126 | 5

5.61 ГБ

В этой теме нет новых непрочитанных сообщений. Гол живых мертвецов / Goal of the Dead [ужасы, комедия, 2014] BDRip 1080p, Avo

salma3

60 | 4

8.9 ГБ

В этой теме нет новых непрочитанных сообщений. Город живых мертвецов / City of the Living Dead [ужасы, 1980] BDRip 720p, Mvo+3Avo+Sub

salma3

43 | 4

4.24 ГБ


Начать новую тему Ответить на тему  [ 1 сообщение ] 




Для Мосгорсуда, Роскомнадзора и рекламодателей:: mosgorsud-torrent[собачка]yandex.ru