Торрент файл
скачать торрент магнет ссылка Добавлен: 03 апр 2016, 22:04
Размер: 1.45 ГБ
Сидеров: 5
Личеров: 2
Статус: (salma3)
Автор

СообщениеДобавлено: 03 апр 2016, 22:04 

Не в сети
Супермодератор
Аватара пользователя
Дата регистрации:
15 фев 2012, 16:44
Возраст: 27
Спасибо: 5121 / 2089
Сообщения: 17282
Страна: США
Жанр: ужасы, триллер
Год выпуска: 2013
Продолжительность: 01:22:36

Перевод: Профессиональный (многоголосый закадровый) Кинопоказ
Cубтитры: нет
Оригинальная аудиодорожка: английский

Режиссер: Предраг Антониевич / Predrag Antonijevic

В ролях: Ребекка Да Коста, Майло Вентимилья, Энди МакДауэлл, Джонатон Шек, Логан Браунинг, Брианна Дэвис, Кетренна Керклэнд, Шеннон Мэйерс, Шэйн Грэй, Роско Уильямс мл.

Описание: Боязнь беременной женщины потерять своего ребёнка, заставляет её совершать самые неожиданные поступки. Даже поверить в призрака, угрожающего убить ее будущего ребенка.

Сэмпл: http://multi-up.com/1095777

Качество видео: HDRip
Формат видео: AVI

Видео: MPEG4, XviD, 720x400 (16:9), 25.000 fps, 1 867 Kbps (0.259 bit/pixel)
Аудио: AC-3, 48.0 KHz, 2 ch, 192 Kbps, CBR - русский
Аудио 2: AC-3, 48.0 KHz, 6 ch, 448 Kbps, CBR - английский
Общее
Полное имя : M:\На грани.avi
Формат : AVI
Формат/Информация : Audio Video Interleave
Размер файла : 1,45 Гбайт
Продолжительность : 1 ч. 22 м.
Общий поток : 2522 Кбит/сек
Название фильма : На грани безумия /На грани / Breaking at the Edge (2013)
Программа кодирования : VirtualDubMod 1.5.10.2 (build 2540/release)
Библиотека кодирования : VirtualDubMod build 2540/release
Авторское право : miha2154

Видео
Идентификатор : 0
Формат : MPEG-4 Visual
Профиль формата : Advanced Simple@L5
Параметр BVOP формата : 1
Параметр QPel формата : Нет
Параметр GMC формата : Без точки перехода
Параметр матрицы формата : Выборочная
Идентификатор кодека : XVID
Идентификатор кодека/Подсказка : XviD
Продолжительность : 1 ч. 22 м.
Битрейт : 1867 Кбит/сек
Ширина : 720 пикселей
Высота : 400 пикселей
Соотношение сторон : 16:9
Частота кадров : 25,000 кадров/сек
Цветовое пространство : YUV
Субдискретизация насыщенности : 4:2:0
Битовая глубина : 8 бит
Тип развёртки : Прогрессивная
Метод сжатия : С потерями
Бит/(Пиксели*Кадры) : 0.259
Размер потока : 1,08 Гбайт (74%)
Библиотека кодирования : XviD 65

Аудио #1
Идентификатор : 1
Формат : AC-3
Формат/Информация : Audio Coding 3
Расширение режима : CM (complete main)
Параметр Endianness формата : Big
Идентификатор кодека : 2000
Продолжительность : 1 ч. 22 м.
Вид битрейта : Постоянный
Битрейт : 192 Кбит/сек
Каналы : 2 канала
Расположение каналов : Front: L R
Частота : 48,0 КГц
Частота кадров : 31,250 кадров/сек (1536 spf)
Метод сжатия : С потерями
Размер потока : 113 Мбайт (8%)
Выравнивание : Разделение по промежуткам
Продолжительность промежутка : 40 мс. (1,00 видеокадр)
Время предзагрузки промежутка : 500 мс.
Заголовок : Профессиональный (многоголосый закадровый) Кинопоказ

Аудио #2
Идентификатор : 2
Формат : AC-3
Формат/Информация : Audio Coding 3
Расширение режима : CM (complete main)
Параметр Endianness формата : Big
Идентификатор кодека : 2000
Продолжительность : 1 ч. 22 м.
Вид битрейта : Постоянный
Битрейт : 448 Кбит/сек
Каналы : 6 каналов
Расположение каналов : Front: L C R, Side: L R, LFE
Частота : 48,0 КГц
Частота кадров : 31,250 кадров/сек (1536 spf)
Метод сжатия : С потерями
Размер потока : 265 Мбайт (18%)
Выравнивание : Разделение по промежуткам
Продолжительность промежутка : 40 мс. (1,00 видеокадр)
Время предзагрузки промежутка : 500 мс.
Заголовок : Английский




_________________



реклама партнёра


Вернуться к началу
 Профиль Отправить личное сообщение  
 
   Похожие торренты   Автор   Торрент   Размер 
В этой теме нет новых непрочитанных сообщений. На грани безумия / Breaking at the Edge [Ужасы, триллер, 2013] BDRip 1080p, Avo

salma3

34 | 4

7.75 ГБ

В этой теме нет новых непрочитанных сообщений. На грани безумия / Deranged [ужасы, 1987] HDTVRip, Dvo [НТВ+]

salma3

67 | 28

1.37 ГБ

В этой теме нет новых непрочитанных сообщений. На грани / The Edge [триллер, драма, приключения, 1997] BDRip 720p, 4Mvo+3Avo

salma3

45 | 9

5.73 ГБ

В этой теме нет новых непрочитанных сообщений. На грани сомнения / Suspension of Disbelief [триллер, 2013] HDRip, Mvo [Лицензия]

salma3

494 | 237

1.46 ГБ

В этой теме нет новых непрочитанных сообщений. На грани / Lev staerkt [Драма, 2014] HDRip, Mvo [НТВ+]

Dracon

9 | 3

1.46 ГБ

В этой теме нет новых непрочитанных сообщений. На грани сомнения / Suspension of Disbelief [триллер, 2012] DVD9, Mvo+Sub [лицензия]

salma3

32 | 11

5.43 ГБ

В этой теме нет новых непрочитанных сообщений. На грани / Lev stærkt [драма, 2014] WEBRip, Mvo

Dracon

610 | 21

1.37 ГБ


Начать новую тему Ответить на тему  [ 1 сообщение ] 




Для Мосгорсуда, Роскомнадзора и рекламодателей:: mosgorsud-torrent[собачка]yandex.ru