Торрент файл
скачать торрент магнет ссылка Добавлен: 03 апр 2016, 21:02
Размер: 2.18 ГБ
Сидеров: 58
Личеров: 6
Статус: (salma3)
Автор

СообщениеДобавлено: 03 апр 2016, 21:02 

Не в сети
Супермодератор
Аватара пользователя
Дата регистрации:
15 фев 2012, 16:44
Возраст: 27
Спасибо: 5130 / 2089
Сообщения: 17350
Перевод: Профессиональный (полное дублирование) [IPTV]
Субтитры: Aнглийские
Формат: BDRip-AVC, MKV, H.264, AC3
Страна: США
Режиссер: Джо Линч
Жанр: боевик, триллер
Продолжительность: 01:32:21
Год выпуска: 2014

В ролях: Сальма Хайек, Хироюки Ватанабэ, Лаура Сепеда, Того Игава, Аки Котабе, Габриэлла Райт, Кэролайн Чикези, Дженнифер Бланк, Елена Гаврилович, Аиша Аяма
Описание: Женщина пытается выжить в схватке с бойцами якудзы, чтобы спасти своих мать и дочь. Действие всего фильма происходит в стенах одной квартиры.



Видео: 1152x480 (2.40:1), 23.976 fps, AVC (х264), , ~ 2483 Kbps, 0.187 bit/pixel
Аудио #1: Русский:48 kHz, AC3 Dolby Digital, 3/2 (L,C,R,l,r) + LFE ch, ~448 kbps avg [Профессиональный (полное дублирование)]
Аудио #2: Английский:48 kHz, AC3 Dolby Digital, 3/2 (L,C,R,l,r) + LFE ch, ~448 kbps avg [Оригинал]
General
Unique ID : 224591963840060855887978365794330653973 (0xA8F6D6BE675CFAFEA2C464A4DF54B515)
Complete name : C:\Users\Юрик\Downloads\Everli.2014.DUAL.BDRip.x264_[tfile.ru].mkv
Format : Matroska
Format version : Version 4 / Version 2
File size : 2.18 GiB
Duration : 1h 32mn
Overall bit rate : 3 382 Kbps
Movie name : Everly (2014) - HELLYWOOD
Encoded date : UTC 2015-08-03 15:50:54
Writing application : mkvmerge v5.9.0 ('On The Loose') built on Dec 15 2012 16:39:58
Writing library : libebml v1.3.0 + libmatroska v1.4.0

Video
ID : 1
Format : AVC
Format/Info : Advanced Video Codec
Format profile :
Format settings, CABAC : Yes
Format settings, ReFrames : 10 frames
Codec ID : V_MPEG4/ISO/AVC
Duration : 1h 32mn
Bit rate : 2 483 Kbps
Width : 1 152 pixels
Height : 480 pixels
Display aspect ratio : 2.40:1
Frame rate mode : Constant
Frame rate : 23.976 (24000/1001) fps
Color space : YUV
Chroma subsampling : 4:2:0
Bit depth : 8 bits
Scan type : Progressive
Bits/(Pixel*Frame) : 0.187
Stream size : 1.56 GiB (72%)
Title : potroks
Writing library : x264 core 146 r2538 121396c
Encoding settings : cabac=1 / ref=10 / deblock=1:-2:-2 / analyse=0x3:0x113 / me=umh / subme=11 / psy=1 / psy_rd=0.99:0.02 / mixed_ref=1 / me_range=48 / chroma_me=1 / trellis=2 / 8x8dct=1 / cqm=0 / deadzone=21,11 / fast_pskip=0 / chroma_qp_offset=-3 / threads=9 / lookahead_threads=2 / sliced_threads=0 / nr=0 / decimate=0 / interlaced=0 / bluray_compat=0 / constrained_intra=0 / bframes=11 / b_pyramid=2 / b_adapt=2 / b_bias=0 / direct=3 / weightb=1 / open_gop=0 / weightp=2 / keyint=250 / keyint_min=23 / scenecut=40 / intra_refresh=0 / rc_lookahead=60 / rc=2pass / mbtree=0 / bitrate=2483 / ratetol=1.0 / qcomp=0.70 / qpmin=0 / qpmax=69 / qpstep=4 / cplxblur=20.0 / qblur=0.5 / vbv_maxrate=14000 / vbv_bufsize=14000 / nal_hrd=none / filler=0 / ip_ratio=1.35 / pb_ratio=1.25 / aq=1:0.80
Language : English
Default : Yes
Forced : No

Audio #1
ID : 2
Format : AC-3
Format/Info : Audio Coding 3
Mode extension : CM (complete main)
Format settings, Endianness : Big
Codec ID : A_AC3
Duration : 1h 32mn
Bit rate mode : Constant
Bit rate : 448 Kbps
Channel(s) : 6 channels
Channel positions : Front: L C R, Side: L R, LFE
Sampling rate : 48.0 KHz
Frame rate : 31.250 fps (1536 spf)
Compression mode : Lossy
Stream size : 296 MiB (13%)
Title : Dub | DD 5.1 @ 448 kbps - IPTV
Language : Russian
Default : Yes
Forced : No

Audio #2
ID : 3
Format : AC-3
Format/Info : Audio Coding 3
Mode extension : CM (complete main)
Format settings, Endianness : Big
Codec ID : A_AC3
Duration : 1h 32mn
Bit rate mode : Constant
Bit rate : 448 Kbps
Channel(s) : 6 channels
Channel positions : Front: L C R, Side: L R, LFE
Sampling rate : 48.0 KHz
Frame rate : 31.250 fps (1536 spf)
Compression mode : Lossy
Stream size : 296 MiB (13%)
Title : Original | DD 5.1 @ 448 kbps
Language : English
Default : No
Forced : No

Text #1
ID : 4
Format : UTF-8
Codec ID : S_TEXT/UTF8
Codec ID/Info : UTF-8 Plain Text
Title : Full
Language : English
Default : No
Forced : No

Text #2
ID : 5
Format : UTF-8
Codec ID : S_TEXT/UTF8
Codec ID/Info : UTF-8 Plain Text
Title : SDH
Language : English
Default : No
Forced : No

Text #3
ID : 6
Format : UTF-8
Codec ID : S_TEXT/UTF8
Codec ID/Info : UTF-8 Plain Text
Title : SDH-Colored
Language : English
Default : No
Forced : No

Menu
00:00:00.000 : en:(01)00:00:00:000
00:07:58.561 : en:(02)00:07:58:561
00:14:23.696 : en:(03)00:14:23:696
00:21:51.727 : en:(04)00:21:51:727
00:29:06.661 : en:(05)00:29:06:661
00:34:15.636 : en:(06)00:34:15:636
00:38:45.614 : en:(07)00:38:45:614
00:46:10.434 : en:(08)00:46:10:434
00:51:20.827 : en:(09)00:51:20:827
00:56:57.664 : en:(10)00:56:57:664
01:02:18.943 : en:(11)01:02:18:943
01:07:53.819 : en:(12)01:07:53:819
01:17:14.630 : en:(13)01:17:14:630
01:26:26.347 : en:(14)01:26:26:347
01:32:20.952 : en:(15)01:32:20:952




_________________



реклама партнёра


Вернуться к началу
 Профиль Отправить личное сообщение  
 
   Похожие торренты   Автор   Торрент   Размер 
В этой теме нет новых непрочитанных сообщений. Эверли / Everly (Беннетт Миллер) [Боевик, Триллер, 2014] BDRip 720p, Dub [IPTV]

Dracon

159 | 19

5.2 ГБ

В этой теме нет новых непрочитанных сообщений. Эверли / Everly (Беннетт Миллер) [Боевик, Триллер, 2014] BDRip 1080p, Dub [IPTV]

Dracon

257 | 50

10.44 ГБ

В этой теме нет новых непрочитанных сообщений. Эверли / Everly (Беннетт Миллер) [Боевик, Триллер, 2014] WEB-DLRip, dvo

Dracon

6 | 3

1.46 ГБ

В этой теме нет новых непрочитанных сообщений. Эверли / Everly (Беннетт Миллер) [Боевик, Триллер, 2014] WEB-DLRip 720p, dvo+avo+sub

Dracon

3 | 2

3.41 ГБ

В этой теме нет новых непрочитанных сообщений. Эверли / Everly (Беннетт Миллер) [Боевик, Триллер, 2014] WEB-DLRip 720p, avo+sub

Dracon

8 | 4

2.91 ГБ

В этой теме нет новых непрочитанных сообщений. Эверли / Everly (Беннетт Миллер) [Боевик, Триллер, 2014] WEB-DL 720p, dub [Чистый звук]

Dracon

139 | 4

3.03 ГБ

В этой теме нет новых непрочитанных сообщений. Эверли / Everly (Беннетт Миллер) [Боевик, Триллер, 2014] WEB-DLRip, dub [Чистый звук]

Dracon

8 | 2

1.46 ГБ


Начать новую тему Ответить на тему  [ 1 сообщение ] 




Для Мосгорсуда, Роскомнадзора и рекламодателей:: mosgorsud-torrent[собачка]yandex.ru