Торрент файл
скачать торрент магнет ссылка Добавлен: 31 мар 2016, 20:45
Размер: 753.9 МБ
Сидеров: 4
Личеров: 1
Статус: (salma3)
Автор

СообщениеДобавлено: 31 мар 2016, 20:45 

Не в сети
Супермодератор
Аватара пользователя
Дата регистрации:
15 фев 2012, 16:44
Возраст: 27
Спасибо: 5143 / 2090
Сообщения: 17495
Страна: США
Жанр: Детектив, мистика
Год выпуска: 1994
Продолжительность: 01:31:56

Перевод: Профессиональный (многоголосый закадровый)
Cубтитры: нет
Режиссер: Пол Шрэдер / Paul Schrader

В ролях: Деннис Хоппер, Пенелопа Энн Миллер, Эрик Богосян, Шерил Ли Ральф, Джулиан Сэндс, Valerie Mahaffey,
Джон Эпперсон, Деби Мейзар, Алан Розенберг, Кристофер Джон Филдс

Описание: Интересный стилизованный детектив с элементами мистики. Действие происходит в Голливуде 1953 года, когда магия была таким же обыденным явлением, как сейчас полеты в космос. Деннис Хоппер в роли частного детектива, нанятого женой продюсера для того, чтобы проследить, не изменяет ли тот своей благоверной. Продюсера убили после того, как он объявил жене о том, что собирается с ней развестись и не снимать ее в кино. Хоппер, однако, расследование продолжает уже за собственный счет, а выйдет ли он на след того, кто наложил порчу, Вам интересней будет узнать самим. (Иванов М.)

Доп. информация: За предоставленный рип (запись с ТВ в дорутрекерный период) большое спасибо SuperDVD01

Релиз

Сэмпл: https://yadi.sk/i/DjEB3nJKqcb6s

Качество видео: TVRip
Формат видео: AVI
Видео: 512x384 (1.33:1), 25 fps, XviD build 73 ~944 kbps avg, 0.19 bit/pixel
Аудио: 48 kHz, AC3 Dolby Digital, 2/1 (L,R,l) ch, ~192 kbps
Охота на ведьм - Witch Hunt [by Edich2].avi
Format : AVI
Format/Info : Audio Video Interleave
File size : 754 MiB
Duration : 1h 31mn
Overall bit rate : 1 146 Kbps
Movie name : Охота на ведьм - Witch Hunt [by Edich2]
Director : by SuperDVD01
Writing application : VirtualDubMod 1.5.10.2 (build 2540/release)
Copyright : Edich2
Comment : RuTracker.org

Video
ID : 0
Format : MPEG-4 Visual
Format profile : Advanced Simple@L5
Format settings, BVOP : 2
Format settings, QPel : No
Format settings, GMC : No warppoints
Format settings, Matrix : Custom
Codec ID : XVID
Codec ID/Hint : XviD
Duration : 1h 31mn
Bit rate : 945 Kbps
Width : 512 pixels
Height : 384 pixels
Display aspect ratio : 4:3
Frame rate : 25.000 fps
Color space : YUV
Chroma subsampling : 4:2:0
Bit depth : 8 bits
Scan type : Progressive
Compression mode : Lossy
Bits/(Pixel*Frame) : 0.192
Stream size : 621 MiB (82%)
Writing library : XviD 73

Audio
ID : 1
Format : AC-3
Format/Info : Audio Coding 3
Mode extension : CM (complete main)
Format settings, Endianness : Big
Codec ID : 2000
Duration : 1h 31mn
Bit rate mode : Constant
Bit rate : 192 Kbps
Channel(s) : 3 channels
Channel positions : Front: L R, Back: C
Sampling rate : 48.0 KHz
Frame rate : 31.250 fps (1536 spf)
Compression mode : Lossy
Stream size : 126 MiB (17%)
Alignment : Split accross interleaves
Interleave, duration : 40 ms (1.00 video frame)
Interleave, preload duratio : 500 ms




_________________



реклама партнёра


Вернуться к началу
 Профиль Отправить личное сообщение  
 
   Похожие торренты   Автор   Торрент   Размер 
В этой теме нет новых непрочитанных сообщений. Последний охотник на ведьм / The Last Witch Hunter [фэнтези, боевик, приключения, 2015] DVD5, Dub+Sub

salma3

130 | 42

4.38 ГБ

В этой теме нет новых непрочитанных сообщений. Последний охотник на ведьм / The Last Witch Hunter [фэнтези, боевик, приключения, 2015] HDRip, Dub [iTunes]

Dracon

1400 | 33

1.37 ГБ

В этой теме нет новых непрочитанных сообщений. Последний охотник на ведьм / The Last Witch Hunter [фэнтези, боевик, приключения, 2015] BDRip, Avo [Гаврилов]

salma3

108 | 7

1.46 ГБ

В этой теме нет новых непрочитанных сообщений. Последний охотник на ведьм / The Last Witch Hunter [фэнтези, боевик, приключения, 2015] HDRip, Dub [iTunes]

Dracon

235 | 5

2.05 ГБ

В этой теме нет новых непрочитанных сообщений. Последний охотник на ведьм / The Last Witch Hunter [фэнтези, боевик, приключения, 2015] BDRip 1080p, Dub [iTunes]

Dracon

468 | 44

7.94 ГБ

В этой теме нет новых непрочитанных сообщений. Последний охотник на ведьм / The Last Witch Hunter [фэнтези, боевик, приключения, 2015] BDRip 720p, Dub [iTunes]

Dracon

189 | 15

5.75 ГБ

В этой теме нет новых непрочитанных сообщений. Военная охота / War Hunt [Военный, драма, 1962] HDTVRip, Dvo

salma3

58 | 4

1.27 ГБ


Начать новую тему Ответить на тему  [ 1 сообщение ] 




Для Мосгорсуда, Роскомнадзора и рекламодателей:: mosgorsud-torrent[собачка]yandex.ru