Торрент файл
скачать торрент магнет ссылка Добавлен: 31 мар 2016, 11:37
Размер: 1.45 ГБ
Сидеров: 85
Личеров: 12
Статус: (salma3)
Автор

СообщениеДобавлено: 31 мар 2016, 11:37 

Не в сети
Супермодератор
Аватара пользователя
Дата регистрации:
15 фев 2012, 16:44
Возраст: 27
Спасибо: 5130 / 2089
Сообщения: 17372
Год выхода: 2007
Жанр: триллер, драма, комедия
Режиссер: Стюарт Гордон

В ролях: Мена Сувари, Стивен Ри, Расселл Хорнсби, Кэролин Пёрди-Гордон, Лайонел Марк Смит, Уэйн Робсон, Р.Д. Рейд, Патрик МакКенна, Шарлин Ройер

О фильме:
Автомобиль Бренди потерял управление и она сбила бомжа, влетевшего прямо в лобовое стекло автомобиля. Опасаясь из-за этого инцендента потерять повышение по службе, она старается скрыть происшедшее и не оказывая ему никакой помощи, просто оставляет еще живого человека умирать в своем гараже. Но в скоре она понимает, что связана с пленником в кровавом… даже возмутительном сражении за выживание…



Страна: Канада, Великобритания, США, Германия
Продолжительность: 01:25:21
Перевод: Профессиональный многоголосый (R5)

Файл
Кодек: XviD (AVI)
Качество: BDRip Исходник Blu-Ray Remux 1080p
Видео: 704x368 (1.91:1), 23.976 fps, XviD build 73 ~1980 kbps avg, 0.32 bit/pixel
Aудио: 48 kHz, AC3 Dolby Digital, 3/2 (L,C,R,l,r) + LFE ch, ~448 kbps

Семпл
Общее
Полное имя : S:ФильмыЗасада. 2007. BDRip (AleksSin).avi
Формат : AVI
Формат/Информация : Audio Video Interleave
Размер файла : 1,45 Гбайт
Продолжительность : 1 ч. 25 м.
Общий поток : 2437 Кбит/сек
Программа кодирования : VirtualDubMod 1.5.10.3 | www.virtualdub-fr.org || (build 2550/release)
Библиотека кодирования : VirtualDubMod build 2550/release
Видео
Идентификатор : 0
Формат : MPEG-4 Visual
Профиль формата : Advanced Simple@L5
Параметр BVOP формата : 1
Параметр QPel формата : Нет
Параметр GMC формата : Без точки перехода
Параметр матрицы формата : Выборочная
Идентификатор кодека : XVID
Идентификатор кодека/Подсказка : XviD
Продолжительность : 1 ч. 25 м.
Битрейт : 1980 Кбит/сек
Ширина : 704 пикселя
Высота : 368 пикселей
Соотношение сторон : 1,913
Частота кадров : 23,976 (23976/1000) кадра/сек
Цветовое пространство : YUV
Субдискретизация насыщенности : 4:2:0
Битовая глубина : 8 бит
Тип развёртки : Прогрессивная
Метод сжатия : С потерями
Бит/(Пиксели*Кадры) : 0.319
Размер потока : 1,18 Гбайт (81%)
Библиотека кодирования : XviD 73
Аудио
Идентификатор : 1
Формат : AC-3
Формат/Информация : Audio Coding 3
Расширение режима : CM (complete main)
Параметр Endianness формата : Big
Идентификатор кодека : 2000
Продолжительность : 1 ч. 25 м.
Вид битрейта : Постоянный
Битрейт : 448 Кбит/сек
Каналы : 6 каналов
Расположение каналов : Front: L C R, Side: L R, LFE
Частота : 48,0 КГц
Частота кадров : 31,250 кадров/сек (1536 spf)
Метод сжатия : С потерями
Размер потока : 273 Мбайт (18%)
Выравнивание : Разделение по промежуткам
Продолжительность промежутка : 42 мс. (1,00 видеокадр)
Время предзагрузки промежутка : 500 мс.


Релиз от:


_________________



реклама партнёра


Вернуться к началу
 Профиль Отправить личное сообщение  
 
   Похожие торренты   Автор   Торрент   Размер 
В этой теме нет новых непрочитанных сообщений. Засада / Stuck [триллер, драма, комедия, 2007] BDRip 720p, Mvo+Sub

salma3

126 | 15

3.32 ГБ

В этой теме нет новых непрочитанных сообщений. Засада / Stuck [Триллер, драма, комедия, 2007] BDRip 1080p, Mvo+Sub

salma3

28 | 30

7.09 ГБ

В этой теме нет новых непрочитанных сообщений. Размер имеет значение-2 / Das allerbeste Stück [комедия, 2004] SATRip, Mvo

salma3

706 | 89

1.1 ГБ

В этой теме нет новых непрочитанных сообщений. Ненасытная / The Insatiable [ужасы, триллер, мелодрама, комедия, 2007] BDRip, Mvo

salma3

0 | 2

1.46 ГБ

В этой теме нет новых непрочитанных сообщений. Версия / Rendition [триллер, драма, 2007] BDRip 720p, Mvo

salma3

81 | 1

2.9 ГБ

В этой теме нет новых непрочитанных сообщений. Заложники / Take [Триллер, драма, криминал, 2007] BDRip 1080p, Dvo

salma3

31 | 0

7.78 ГБ

В этой теме нет новых непрочитанных сообщений. Кошелек или жизнь / Trick 'r Treat [ужасы, чёрная комедия, триллер, 2007] BDRip, Dub [Лицензия]

salma3

79 | 7

1.46 ГБ


Начать новую тему Ответить на тему  [ 1 сообщение ] 




Для Мосгорсуда, Роскомнадзора и рекламодателей:: mosgorsud-torrent[собачка]yandex.ru