Торрент файл
скачать торрент магнет ссылка Добавлен: 30 мар 2016, 20:54
Размер: 1.5 ГБ
Сидеров: 5
Личеров: 1
Статус: (salma3)
Автор

СообщениеДобавлено: 30 мар 2016, 20:54 

Не в сети
Супермодератор
Аватара пользователя
Дата регистрации:
15 фев 2012, 16:44
Возраст: 27
Спасибо: 5121 / 2089
Сообщения: 17296
Страна: США
Жанр: Триллер
Год выпуска: 1994
Продолжительность: 01:38:04

Перевод: Авторский (одноголосый закадровый) Антон Алексеев
Cубтитры: нет
Режиссер: Фриц Кирш / Fritz Kiersch

В ролях: Джек Скалия, Бо Дерек, Джон Сэвэдж, Дориан Хэрвуд, Рамон Франко, Майкл Харрис, Дэвид МакКаллум, Кэрол Лоуренс, Салли Диас, Патрик Томас

Описание: Владелец богатейшего агенства фотомоделей изменяет своей жене (Дерек), и вскоре его похищают и требуют выкуп в 5 миллионов. Во время операции по передаче денег похищенный взрывается в машине вместе с похитителем. Погибает также агент ФБР. Его напарник (Скалиа) уходит с работы и обещает найти истинных выновников смерти своего друга и коллеги, так как считает, что похищенный сам инсценировал свою гибель. Дело в том, что незадолго до похищения он похитил из своей собственной компании 10 миллионов долларов. Неплохой триллер с "навороченным" сюжетом. Джон Сэвидж в роли брата похищенного. (М. Иванов)

Релиз

Сэмпл: https://yadi.sk/i/T987mrzrqbde6

Качество видео: VHSRip
Формат видео: AVI
Видео: XviD build 50, 624x480 (1.30:1), 23.976 fps, 1994 kbps avg, 0.28 bit/pixel
Аудио: AC3 Dolby Digital, 48000 Hz, 2/0 (L,R) ch (mono), 192.00 kbps avg
Разбитая интрига - Shattered_Image [by ale_x2008].avi
Format : AVI
Format/Info : Audio Video Interleave
File size : 1.50 GiB
Duration : 1h 38mn
Overall bit rate : 2 196 Kbps
Movie name : Разбитая интрига - Shattered_Image [by ale_x2008]
Director : by ale_x2008
Writing application : VirtualDubMod 1.5.10.3 (build 2550/release)
Copyright : Edich2
Comment : RuTracker.org

Video
ID : 0
Format : MPEG-4 Visual
Format profile : Advanced Simple@L5
Format settings, BVOP : 2
Format settings, QPel : No
Format settings, GMC : No warppoints
Format settings, Matrix : Default (H.263)
Codec ID : XVID
Codec ID/Hint : XviD
Duration : 1h 38mn
Bit rate : 1 995 Kbps
Width : 624 pixels
Height : 480 pixels
Display aspect ratio : 4:3
Frame rate : 23.976 (23976/1000) fps
Color space : YUV
Chroma subsampling : 4:2:0
Bit depth : 8 bits
Scan type : Progressive
Compression mode : Lossy
Bits/(Pixel*Frame) : 0.278
Stream size : 1.37 GiB (91%)
Writing library : XviD 1.2.1 (UTC 2008-12-04)

Audio
ID : 1
Format : AC-3
Format/Info : Audio Coding 3
Mode extension : CM (complete main)
Format settings, Endianness : Big
Codec ID : 2000
Duration : 1h 38mn
Bit rate mode : Constant
Bit rate : 192 Kbps
Channel(s) : 2 channels
Channel positions : Front: L R
Sampling rate : 48.0 KHz
Frame rate : 31.250 fps (1536 spf)
Compression mode : Lossy
Stream size : 135 MiB (9%)
Alignment : Split accross interleaves
Interleave, duration : 42 ms (1.00 video frame)
Interleave, preload duratio : 500 ms




Доп. информация: Дорожка с А. Алексеевым синхронизирована, ремастерирована и наложена ale_x2008 при помощи Sony Vegas и VirtualDubMod.
За оцифрованную с VHS дорожку благодарим - budulai-8


_________________



реклама партнёра


Вернуться к началу
 Профиль Отправить личное сообщение  
 
   Похожие торренты   Автор   Торрент   Размер 
В этой теме нет новых непрочитанных сообщений. Никита-двойная жизнь / Два убийцы / Shattered Image [Детективный триллер, 1998] DVDRip, Avo

salma3

5 | 1

1.37 ГБ

В этой теме нет новых непрочитанных сообщений. Одержимый / Hard Drive [Триллер, 1994] VHSRip, Avo

salma3

59 | 7

1.39 ГБ

В этой теме нет новых непрочитанных сообщений. Горькая месть / Bitter Vengeance [Триллер, 1994] VHSRip, Avo

salma3

63 | 6

752.1 МБ

В этой теме нет новых непрочитанных сообщений. Иностранная интрига / Foreign Intrigue [Триллер, 1956] HDTV 1080i, Dvo [НТВ+]

salma3

1 | 2

4.38 ГБ

В этой теме нет новых непрочитанных сообщений. Смертные грехи / Deadly Sins [детектив, триллер, 1994] VHSRip, Mvo

salma3

8 | 2

753.76 МБ

В этой теме нет новых непрочитанных сообщений. Точно в цель / Обмен убийствами / Dead On [Триллер, 1994] VHSRip, Avo

salma3

0 | 0

1.44 ГБ

В этой теме нет новых непрочитанных сообщений. Камера в губной помаде / Lipstick Camera [боевик, триллер, 1994] VHSRip, Avo

salma3

18 | 8

1.16 ГБ


Начать новую тему Ответить на тему  [ 1 сообщение ] 




Для Мосгорсуда, Роскомнадзора и рекламодателей:: mosgorsud-torrent[собачка]yandex.ru