Торрент файл
скачать торрент магнет ссылка Добавлен: 30 мар 2016, 20:52
Размер: 1.37 ГБ
Сидеров: 5
Личеров: 1
Статус: (salma3)
Автор

СообщениеДобавлено: 30 мар 2016, 20:52 

Не в сети
Супермодератор
Аватара пользователя
Дата регистрации:
15 фев 2012, 16:44
Возраст: 27
Спасибо: 5139 / 2089
Сообщения: 17432
Страна: США, Канада, Великобритания
Жанр: Детективный триллер
Год выпуска: 1998
Продолжительность: 01:42:38

Перевод: Авторский (одноголосый закадровый) Юрий Сербин
Cубтитры: нет
Режиссер: Рауль Руис / Raoul Ruiz

В ролях: Уильям Болдуин, Анн Парийо, Лизэнн Фальк, Грэм Грин, Бюль Ожье, Билли Вильмотт, О’Нил Пирт, Леони Форбс, Рик Раванелло, Марк Экерстрим

Описание: Молодая привлекательная женщина Джесси живет двумя жизнями. Днем она счастливая невеста, проводящая со своим новоиспеченным мужем медовый месяц где-то на южных островах. Ночью, во снах, она становится наемным убийцей, без эмоций и размышлений следующим от жертвы к жертве. Но балансируя на грани фантазии и реальности, плутая в лабиринтах сна, очень просто потерять контроль над действительностью… Люди вокруг перестают быть теме, кем были вчера, знакомая обстановка внушает недоверие, цепочка неоъяснимых событий леденящим страхом парализует разум. И уже не ясно, действительно ли молодой супруг лелеет смертоносные планы, или это паранойя из снов выплеснулась в жизнь? Как узнать, сможет ли рука, никогда не державшая пистолета, в ответственный момент спустить курок?

Релиз

Сэмпл: https://yadi.sk/i/2mmp28k9qbaxD

Качество видео: DVDRip [DVD5 от Сыскарь]
Формат видео: AVI
Видео: XviD build 73, 704x400 (1.76:1), 25.00 fps, 1516 kbps avg, 0.22 bit/pixel
Аудио: AC3 Dolby Digital, 48000Hz, 2/0 (L,R) ch (stereo), 192.00 kbps avg [AVO]
Аудио 2: AC3 Dolby Digital, 48000Hz, 2/0 (L,R) ch (stereo), 192.00 kbps avg [Eng]
Никита-двойная жизнь - Shattered Image [by ale_x2008].avi
Format : AVI
Format/Info : Audio Video Interleave
File size : 1.37 GiB
Duration : 1h 42mn
Overall bit rate : 1 915 Kbps
Movie name : Никита-двойная жизнь - Shattered Image [by ale_x2008]
Director : by ale_x2008
Writing application : VirtualDubMod 1.5.10.3 (build 2550/release)
Copyright : Edich2
Comment : RuTracker.org

Video
ID : 0
Format : MPEG-4 Visual
Format profile : Advanced Simple@L5
Format settings, BVOP : 2
Format settings, QPel : No
Format settings, GMC : No warppoints
Format settings, Matrix : Custom
Codec ID : XVID
Codec ID/Hint : XviD
Duration : 1h 42mn
Bit rate : 1 518 Kbps
Width : 704 pixels
Height : 400 pixels
Display aspect ratio : 16:9
Frame rate : 25.000 fps
Color space : YUV
Chroma subsampling : 4:2:0
Bit depth : 8 bits
Scan type : Progressive
Compression mode : Lossy
Bits/(Pixel*Frame) : 0.216
Stream size : 1.09 GiB (79%)
Writing library : XviD 73

Audio #1
ID : 1
Format : AC-3
Format/Info : Audio Coding 3
Mode extension : CM (complete main)
Format settings, Endianness : Big
Codec ID : 2000
Duration : 1h 42mn
Bit rate mode : Constant
Bit rate : 192 Kbps
Channel(s) : 2 channels
Channel positions : Front: L R
Sampling rate : 48.0 KHz
Frame rate : 31.250 fps (1536 spf)
Compression mode : Lossy
Stream size : 140 MiB (10%)
Alignment : Split accross interleaves
Interleave, duration : 40 ms (1.00 video frame)
Interleave, preload duratio : 500 ms

Audio #2
ID : 2
Format : AC-3
Format/Info : Audio Coding 3
Mode extension : CM (complete main)
Format settings, Endianness : Big
Codec ID : 2000
Duration : 1h 42mn
Bit rate mode : Constant
Bit rate : 192 Kbps
Channel(s) : 2 channels
Channel positions : Front: L R
Sampling rate : 48.0 KHz
Frame rate : 31.250 fps (1536 spf)
Compression mode : Lossy
Stream size : 140 MiB (10%)
Alignment : Split accross interleaves
Interleave, duration : 40 ms (1.00 video frame)
Interleave, preload duratio : 500 ms




Доп. информация: Дорожка с Ю. Сербиным синхронизирована, ремастерирована и наложена ale_x2008 при помощи Adobe Audition, Sony Vegas и VirtualDubMod.
За оцифрованную с VHS дорожку благодарим - kiruxa-k и за активное участие - Sergunka172


_________________



реклама партнёра


Вернуться к началу
 Профиль Отправить личное сообщение  
 
   Похожие торренты   Автор   Торрент   Размер 
В этой теме нет новых непрочитанных сообщений. Разбитая интрига / Разбитый образ / Погибшая репутация / Shattered Image [Триллер, 1994] VHSRip, Avo

salma3

5 | 1

1.5 ГБ

В этой теме нет новых непрочитанных сообщений. Двойная жизнь / Second Skin [Детектив, триллер, 2000] DVDRip, Mvo

salma3

4 | 2

1.46 ГБ

В этой теме нет новых непрочитанных сообщений. Письма убийцы / Letters from a Killer [Триллер, драма, криминал, детектив, 1998] DVDRip, Mvo

salma3

500 | 482

1.51 ГБ

В этой теме нет новых непрочитанных сообщений. Двойная жизнь [01-10 из 10] [Мелодрама, 2014] WEB-DLRip

Dracon

238 | 46

5.87 ГБ

В этой теме нет новых непрочитанных сообщений. Двойная жизнь [01-07 из 10] [Мелодрама, 2014] SATRip

Dracon

0 | 2

3.99 ГБ

В этой теме нет новых непрочитанных сообщений. Убийцы на замену / The Replacement Killers [боевик, триллер, драма, криминал, 1998] BDRip, Dub+Sub

salma3

20 | 5

1.46 ГБ

В этой теме нет новых непрочитанных сообщений. Повторно не судят / Двойная опасность / Double Jeopardy [Триллер, 1992] DVDRip, Avo

salma3

57 | 10

1.46 ГБ


Начать новую тему Ответить на тему  [ 1 сообщение ] 




Для Мосгорсуда, Роскомнадзора и рекламодателей:: mosgorsud-torrent[собачка]yandex.ru