Торрент файл
скачать торрент магнет ссылка Добавлен: 30 мар 2016, 12:02
Размер: 2.93 ГБ
Сидеров: 0
Личеров: 0
Статус: (salma3)
Автор

СообщениеДобавлено: 30 мар 2016, 12:02 

Не в сети
Супермодератор
Аватара пользователя
Дата регистрации:
15 фев 2012, 16:44
Возраст: 27
Спасибо: 5143 / 2090
Сообщения: 17478
Игра на понижение / The Big Short
«Неправдоподобная, но правдивая история»

Страна: США
Жанр: драма, биография
Год выпуска: 2015
Продолжительность: 02:10:16

Перевод: Профессиональный (полное дублирование) (LINE)
Оригинальная аудиодорожка: английский
Cубтитры: русские (форс., полные), английские (полные, SDH)
Навигация по главам: есть

Режиссер: Адам МакКей / Adam McKay

В ролях: Кристиан Бэйл, Стив Карелл, Райан Гослинг, Брэд Питт, Мелисса Лео, Хамиш Линклэйтер, Джон Магаро, Рейф Сполл, Джереми Стронг, Мариса Томей, Финн Уиттрок, Стэнли Вонг, Байрон Манн, Трэйси Леттс, Карен Гиллан, Селена Гомес, Макс Гринфилд, Марго Робби, Руди Айзенцопф, Кэйси Гров

Описание: Когда речь идет о деньгах, совесть молчит. А уж если речь об огромных деньгах!.. Это основанная на реальных событиях история нескольких провидцев, которые независимо друг от друга предсказали мировой экономический кризис 2008 года задолго до того, как о нем зашептались в кулуарах на Уолл-стрит. И предсказав, стали на нем зарабатывать. Сами того не желая.



Качество видео: BDRip-AVC (исходник - BDRemux|The.Big.Short.2015.1080p.BluRay.REMUX.AVC.DTS-HD.MA.7.1-RARBG)
Формат видео: MKV

Видео: x264, 1056x440 (2.40:1), 23,976 fps, ~2512 kbps, 0.225 bit/pixel
Аудио 1: 48 kHz, AC3 2 ch (L,R), ~192 kbps [русский]
Аудио 2: 48 kHz, AC3 Dolby Digital, 3/2 (L,C,R,l,r) + LFE ch, ~448 kbps [английский]
Формат субтитров: softsub (SRT)
Format : Matroska
Format version : Version 4 / Version 2
File size : 2.93 GiB
Duration : 2h 10mn
Overall bit rate : 3 216 Kbps
Movie name : Игра на понижение / The Big Short (2015) :: AFM ::
Encoded date : UTC 2016-03-29 09:49:52
Writing application : mkvmerge v8.3.0 ('Over the Horizon') 32bit
Writing library : libebml v1.3.1 + libmatroska v1.4.2

Video
ID : 1
Format : AVC
Format/Info : Advanced Video Codec
Format profile : High@L4.1
Format settings, CABAC : Yes
Format settings, ReFrames : 12 frames
Codec ID : V_MPEG4/ISO/AVC
Duration : 2h 10mn
Bit rate : 2 512 Kbps
Width : 1 056 pixels
Height : 440 pixels
Display aspect ratio : 2.40:1
Frame rate mode : Constant
Frame rate : 23.976 fps
Color space : YUV
Chroma subsampling : 4:2:0
Bit depth : 8 bits
Scan type : Progressive
Bits/(Pixel*Frame) : 0.225
Stream size : 2.29 GiB (78%)
Title : BDRip by AFM [RuTracker.org]
Writing library : x264 core 148 r2665+53 6629127 t_mod_Custom [8-bit@all X86_64]
Encoding settings : cabac=1 / ref=12 / deblock=1:-2:-2 / analyse=0x3:0x113 / me=umh / subme=10 / psy=1 / fade_compensate=0.00 / psy_rd=1.00:0.05 / mixed_ref=1 / me_range=32 / chroma_me=1 / trellis=2 / 8x8dct=1 / cqm=0 / deadzone=21,11 / fast_pskip=0 / chroma_qp_offset=-3 / threads=6 / lookahead_threads=1 / sliced_threads=0 / nr=0 / decimate=1 / interlaced=0 / bluray_compat=0 / constrained_intra=0 / fgo=0 / bframes=15 / b_pyramid=2 / b_adapt=2 / b_bias=0 / direct=1 / weightb=1 / open_gop=0 / weightp=2 / keyint=250 / keyint_min=23 / scenecut=40 / intra_refresh=0 / rc_lookahead=90 / rc=crf / mbtree=1 / crf=18.1000 / qcomp=0.65 / qpmin=0:0:0 / qpmax=69:69:69 / qpstep=4 / vbv_maxrate=50000 / vbv_bufsize=62500 / crf_max=0.0 / nal_hrd=none / filler=0 / ip_ratio=1.33 / aq=1:0.80 / aq-sensitivity=10.00 / aq-factor=1.00:1.00:1.00 / aq2=0 / aq3=0 / zones=180610,187392,q=30
Language : English
Default : Yes
Forced : No

Audio #1
ID : 2
Format : AC-3
Format/Info : Audio Coding 3
Mode extension : CM (complete main)
Format settings, Endianness : Big
Codec ID : A_AC3
Duration : 2h 10mn
Bit rate mode : Constant
Bit rate : 192 Kbps
Channel(s) : 2 channels
Channel positions : Front: L R
Sampling rate : 48.0 KHz
Compression mode : Lossy
Stream size : 179 MiB (6%)
Title : Dub (Line) AC3, 2ch, ~192 kbps
Language : Russian
Default : Yes
Forced : No

Audio #2
ID : 3
Format : AC-3
Format/Info : Audio Coding 3
Mode extension : CM (complete main)
Format settings, Endianness : Big
Codec ID : A_AC3
Duration : 2h 10mn
Bit rate mode : Constant
Bit rate : 448 Kbps
Channel(s) : 6 channels
Channel positions : Front: L C R, Side: L R, LFE
Sampling rate : 48.0 KHz
Compression mode : Lossy
Stream size : 417 MiB (14%)
Title : Original, AC3 5.1 ~448 kbps
Language : English
Default : No
Forced : No

Text #1
ID : 4
Format : UTF-8
Codec ID : S_TEXT/UTF8
Codec ID/Info : UTF-8 Plain Text
Title : forced
Language : Russian
Default : Yes
Forced : No

Text #2
ID : 5
Format : UTF-8
Codec ID : S_TEXT/UTF8
Codec ID/Info : UTF-8 Plain Text
Language : Russian
Default : No
Forced : No

Text #3
ID : 6
Format : UTF-8
Codec ID : S_TEXT/UTF8
Codec ID/Info : UTF-8 Plain Text
Language : English
Default : No
Forced : No

Text #4
ID : 7
Format : UTF-8
Codec ID : S_TEXT/UTF8
Codec ID/Info : UTF-8 Plain Text
Title : SDH
Language : English
Default : No
Forced : No

Menu
00:00:00.000 : en:Chapter 01
00:09:24.564 : en:Chapter 02
00:15:47.571 : en:Chapter 03
00:19:03.058 : en:Chapter 04
00:25:59.516 : en:Chapter 05
00:28:49.978 : en:Chapter 06
00:37:24.242 : en:Chapter 07
00:42:54.488 : en:Chapter 08
00:49:36.682 : en:Chapter 09
00:57:01.835 : en:Chapter 10
01:02:09.892 : en:Chapter 11
01:10:52.957 : en:Chapter 12
01:17:03.243 : en:Chapter 13
01:20:57.102 : en:Chapter 14
01:29:53.221 : en:Chapter 15
01:34:37.046 : en:Chapter 16
01:41:15.903 : en:Chapter 17
01:45:30.490 : en:Chapter 18
01:49:34.651 : en:Chapter 19
01:55:16.075 : en:Chapter 20
02:03:44.500 : en:Chapter 21
x264 [info]: frame I:1262 Avg QP:16.01 size: 86650
x264 [info]: frame P:37587 Avg QP:19.67 size: 26118
x264 [info]: frame B:148543 Avg QP:21.45 size: 9577
x264 [info]: consecutive B-frames: 1.6% 1.8% 7.1% 13.2% 16.3% 47.0% 4.6% 1.3% 1.2% 1.0% 0.9% 0.6% 0.5% 0.5% 0.4% 1.8%
x264 [info]: mb I I16..4: 10.6% 68.7% 20.7%
x264 [info]: mb P I16..4: 1.4% 11.6% 1.5% P16..4: 37.4% 24.3% 14.5% 0.0% 0.0% skip: 9.1%
x264 [info]: mb B I16..4: 0.1% 1.8% 0.1% B16..8: 41.4% 10.0% 3.0% direct: 5.9% skip:37.7% L0:43.7% L1:46.6% BI: 9.6%
x264 [info]: 8x8 transform intra:81.8% inter:67.8%
x264 [info]: coded y,uvDC,uvAC intra: 89.4% 88.1% 72.1% inter: 27.7% 25.2% 8.1%
x264 [info]: i16 v,h,dc,p: 34% 15% 9% 42%
x264 [info]: i8 v,h,dc,ddl,ddr,vr,hd,vl,hu: 13% 8% 9% 10% 13% 13% 13% 11% 11%
x264 [info]: i4 v,h,dc,ddl,ddr,vr,hd,vl,hu: 14% 10% 4% 9% 14% 14% 13% 11% 12%
x264 [info]: i8c dc,h,v,p: 46% 19% 17% 18%
x264 [info]: Weighted P-Frames: Y:97.9% UV:2.4%
x264 [info]: ref P L0: 46.4% 12.5% 17.9% 5.8% 5.0% 3.1% 2.9% 1.5% 1.5% 1.1% 1.2% 1.0% 0.1% 0.0%
x264 [info]: ref B L0: 75.0% 11.5% 5.1% 2.6% 1.7% 1.4% 1.0% 0.6% 0.5% 0.3% 0.1%
x264 [info]: ref B L1: 92.6% 7.4%
x264 [info]: kb/s:2572.94


_________________



реклама партнёра


Вернуться к началу
 Профиль Отправить личное сообщение  
 
   Похожие торренты   Автор   Торрент   Размер 
В этой теме нет новых непрочитанных сообщений. Игра на понижение / The Big Short [драма, комедия, биография, 2015] BDRip 1080p, Dub+Sub [Лицензия]

salma3

145 | 48

17.91 ГБ

В этой теме нет новых непрочитанных сообщений. Игра на понижение / The Big Short [драма, комедия, биография, 2015] BDRip, Dub [Чистый звук]

salma3

9553 | 559

1.46 ГБ

В этой теме нет новых непрочитанных сообщений. Игра на понижение / The Big Short (Адам МакКей / Adam McKay)[2015г., драма, биография, DVDScr) Dub

Alfredovich

320 | 6

1.45 ГБ

В этой теме нет новых непрочитанных сообщений. Непобедимый Мэнни Пакьяо / Kid Kulafu [Драма, биография, спорт, 2015] WEB-DLRip, Dub [Line]

salma3

1199 | 210

1.46 ГБ

В этой теме нет новых непрочитанных сообщений. Непобедимый Мэнни Пакьяо / Kid Kulafu [Драма, биография, спорт, 2015] WEB-DLRip 1080p, Dub [Line]

salma3

260 | 116

3.84 ГБ

В этой теме нет новых непрочитанных сообщений. Игра по чужим правилам / Glory Road [драма, биография, спорт, 2006] BDRip-AVC, Mvo

salma3

31 | 4

747.84 МБ

В этой теме нет новых непрочитанных сообщений. Дикие лошади / Wild Horses [Драма, криминал, 2015] BDRip 1080p, Dub [Line]

salma3

161 | 37

6.8 ГБ


Начать новую тему Ответить на тему  [ 1 сообщение ] 




Для Мосгорсуда, Роскомнадзора и рекламодателей:: mosgorsud-torrent[собачка]yandex.ru