Торрент файл
скачать торрент магнет ссылка Добавлен: 30 мар 2016, 12:00
Размер: 2.18 ГБ
Сидеров: 14
Личеров: 5
Статус: (salma3)
Автор

СообщениеДобавлено: 30 мар 2016, 12:00 

Не в сети
Супермодератор
Аватара пользователя
Дата регистрации:
15 фев 2012, 16:44
Возраст: 27
Спасибо: 5139 / 2089
Сообщения: 17411
Страна: США
Жанр: драма
Годы выпуска: 2015
Продолжительность: 02:02:00

Перевод: Профессиональный (многоголосый закадровый) iTunes
Субтитры: русские, английские
Оригинальная аудиодорожка: английский

Режиссер: Майкл Полиш / Michael Polish

В ролях: Хейден Кристенсен, Кейт Босворт, Маршалл Белл, Катрин Карлен, Майкл В. Смит, Джейсон Кеннеди, Майкл Хардинг, Синтия Баррет, Рода Гриффис, Николас Прайор, Дуайт Йоакам, Фред Долтон Томпсон

Описание: Жизнь пастора Дона Пайпера, любящего супруга и отца, — образец домашнего уюта и счастья. Непрошеные перемены наступают, когда Дон попадает в автомобильную аварию. Бессильные спасатели лишь констатируют факт смерти и накрывают тело брезентом. Однако спустя полтора часа бригада реанимации возвращает Дона к жизни.
Все это время душа Дона обретала покой, любовь и радость, каких никогда не знала прежде. Благодаря клинической смерти Дон приобретает мистический опыт, который заставляет его по-новому взглянуть на собственную жизнь. Но когда он возвращается в этот мир, дают о себе знать и печальные последствия аварии: Дон прикован к постели, и медицина не способна поставить его на ноги. Но после пережитого чуда Дон не намерен сдаваться. Заручившись поддержкой своей жены, он намерен преодолеть самые тяжелые испытания.



Качество видео: BDRip | Dreamcatcher/1080p BD-Remux
Формат видео: AVI
Видео: 720x304 (2.37:1), 23.976 fps, XviD build 73 ~1773 kbps avg, 0.34 bit/pixel
Аудио 1: 48 kHz, AC3 Dolby Digital, 3/2 (L,C,R,l,r) + LFE ch, ~384 kbps MVO
Аудио 2: 48 kHz, AC3 Dolby Digital, 3/2 (L,C,R,l,r) + LFE ch, ~384 kbps оригинал
Формат субтитров: softsub (SRT)
General
Complete name : C:\90.Minutes.in.Heaven.2015.BDRip.MVO.Eng_by_LBS.avi
Format : AVI
Format/Info : Audio Video Interleave
Format profile : OpenDML
File size : 2.18 GiB
Duration : 2h 2mn
Overall bit rate : 2 558 Kbps
Writing application : VirtualDubMod 1.5.10.3 | http://www.virtualdub-fr.org || (build 2550/release)
Writing library : VirtualDubMod build 2550/release

Video
ID : 0
Format : MPEG-4 Visual
Format profile : Advanced Simple@L5
Format settings, BVOP : 1
Format settings, QPel : No
Format settings, GMC : No warppoints
Format settings, Matrix : Custom
Codec ID : XVID
Codec ID/Hint : XviD
Duration : 2h 2mn
Bit rate : 1 773 Kbps
Width : 720 pixels
Height : 304 pixels
Display aspect ratio : 2.35:1
Frame rate : 23.976 fps
Color space : YUV
Chroma subsampling : 4:2:0
Bit depth : 8 bits
Scan type : Progressive
Compression mode : Lossy
Bits/(Pixel*Frame) : 0.338
Stream size : 1.51 GiB (69%)
Writing library : XviD 73

Audio #1
ID : 1
Format : AC-3
Format/Info : Audio Coding 3
Mode extension : CM (complete main)
Format settings, Endianness : Big
Codec ID : 2000
Duration : 2h 1mn
Bit rate mode : Constant
Bit rate : 384 Kbps
Channel(s) : 6 channels
Channel positions : Front: L C R, Side: L R, LFE
Sampling rate : 48.0 KHz
Bit depth : 16 bits
Compression mode : Lossy
Stream size : 335 MiB (15%)
Alignment : Split accross interleaves
Interleave, duration : 42 ms (1.00 video frame)
Interleave, preload duration : 500 ms

Audio #2
ID : 2
Format : AC-3
Format/Info : Audio Coding 3
Mode extension : CM (complete main)
Format settings, Endianness : Big
Codec ID : 2000
Duration : 2h 2mn
Bit rate mode : Constant
Bit rate : 384 Kbps
Channel(s) : 6 channels
Channel positions : Front: L C R, Side: L R, LFE
Sampling rate : 48.0 KHz
Bit depth : 16 bits
Compression mode : Lossy
Stream size : 335 MiB (15%)
Alignment : Split accross interleaves
Interleave, duration : 42 ms (1.00 video frame)
Interleave, preload duration : 500 ms



_________________



реклама партнёра


Вернуться к началу
 Профиль Отправить личное сообщение  
 
   Похожие торренты   Автор   Торрент   Размер 
В этой теме нет новых непрочитанных сообщений. 90 минут на небесах / 90 Minutes in Heaven [драма, 2015] BDRip 1080p, Mvo+Sub [iTunes]

salma3

8 | 2

13.11 ГБ

В этой теме нет новых непрочитанных сообщений. 90 минут на небесах / 90 Minutes in Heaven [Драма, 2015] HDRip, Mvo [iTunes]

salma3

141 | 11

1.37 ГБ

В этой теме нет новых непрочитанных сообщений. 88 минут / 88 Minutes [Триллер, драма, криминал, детектив, 2007] BDRip 720p, Mvo

salma3

30 | 24

4.54 ГБ

В этой теме нет новых непрочитанных сообщений. Семь минут / 7 Minutes (Jay Martin) [триллер, драма, криминал, 2014] BDRip 720з, dvo

Dracon

789 | 50

2.51 ГБ

В этой теме нет новых непрочитанных сообщений. 15 минут славы / 15 Minutes [Боевик, триллер, драма, криминал, 2001] BDRip 1080p, Dub+2Mvo+Dvo+Sub

salma3

44 | 1

10.77 ГБ

В этой теме нет новых непрочитанных сообщений. 15 минут славы / 15 Minutes [боевик, триллер, драма, криминал, 2001] BDRip 720p, Dub+2Mvo+Dvo+Sub

salma3

109 | 11

5.76 ГБ

В этой теме нет новых непрочитанных сообщений. Ночь на небесах / A Night in Heaven [драма, мелодрама, 1983] DVDRip, Avo

salma3

34 | 2

716.13 МБ


Начать новую тему Ответить на тему  [ 1 сообщение ] 




Для Мосгорсуда, Роскомнадзора и рекламодателей:: mosgorsud-torrent[собачка]yandex.ru