Торрент файл
скачать торрент магнет ссылка Добавлен: 30 мар 2016, 11:56
Размер: 745.33 МБ
Сидеров: 1
Личеров: 0
Статус: (salma3)
Автор

СообщениеДобавлено: 30 мар 2016, 11:56 

Не в сети
Супермодератор
Аватара пользователя
Дата регистрации:
15 фев 2012, 16:44
Возраст: 27
Спасибо: 5146 / 2090
Сообщения: 17514
Страна: Мексика
Жанр: Приключения, комедия
Год выпуска: 1957
Продолжительность: 01:03:27

Перевод: Одноголосый закадровый den904
Режиссер: Рафаэль Портильо / Rafael Portillo

В ролях: Рамон Гэй, Роза Аренас, Крок Альварадо, Луис Асевес Кастаньеда, Хорхе Мондрагон, Артуро Мартинез, Эмма Рольдан, Джулиан де Мериче, Сальвадор Лозаньо

Описание: Доктор Крупп арестован. Доктор Альмада, Флор и его помощник, Пинакате, чувствуют себя в безопасности. Однако появившийся таинственный незнакомец в маске по прозвищу "Ангел" сообщает доктору Альмаде, что всем им угрожает опасность, поскольку доктору Круппу удалось сбежать. Доктор Крупп задумывает вновь выкрасть браслет и кирасу из гробницы ацтеков, что в итоге ему и удаётся. Похитив Флор, невесту доктора Альмады, он пытается заставить последнего указать тому место спрятанных сокровищ ацтеков. Чем всё это обернётся для доктора Круппа и кто скрывался под маской "Ангела", вы узнаете из фильма…

Доп. информация: Перевод: VampirO

Сэмпл: http://multi-up.com/1094798

Качество видео: DVDRip
Формат видео: AVI
Видео: 592x464 (1.28:1), 23.976 fps, XviD build 64 ~1446 kbps avg, 0.22 bit/pixel
Аудио: 48 kHz, AC3 Dolby Digital, 2/0 (L,R) ch, ~192.00 kbps
avg
General
Complete name : D:\La maldicion de la momia azteca.avi
Format : AVI
Format/Info : Audio Video Interleave
File size : 745 MiB
Duration : 1h 3mn
Overall bit rate : 1 644 Kbps
Writing application : VirtualDubMod 1.5.10.3 (build 2550/release)
Writing library : VirtualDubMod build 2550/release

Video
ID : 0
Format : MPEG-4 Visual
Format profile : Advanced Simple@L5
Format settings, BVOP : 1
Format settings, QPel : No
Format settings, GMC : No warppoints
Format settings, Matrix : Custom
Codec ID : XVID
Codec ID/Hint : XviD
Duration : 1h 3mn
Bit rate : 1 446 Kbps
Width : 592 pixels
Height : 464 pixels
Display aspect ratio : 1.276
Frame rate : 23.976 (23976/1000) fps
Color space : YUV
Chroma subsampling : 4:2:0
Bit depth : 8 bits
Scan type : Progressive
Compression mode : Lossy
Bits/(Pixel*Frame) : 0.220
Stream size : 656 MiB (88%)
Writing library : XviD 64

Audio
ID : 1
Format : AC-3
Format/Info : Audio Coding 3
Mode extension : CM (complete main)
Format settings, Endianness : Big
Codec ID : 2000
Duration : 1h 3mn
Bit rate mode : Constant
Bit rate : 192 Kbps
Channel(s) : 2 channels
Channel positions : Front: L R
Sampling rate : 48.0 KHz
Frame rate : 31.250 fps (1536 spf)
Bit depth : 16 bits
Compression mode : Lossy
Stream size : 87.1 MiB (12%)
Alignment : Aligned on interleaves
Interleave, duration : 160 ms (3.84 video frames)
Interleave, preload duration : 640 ms


_________________



реклама партнёра


Вернуться к началу
 Профиль Отправить личное сообщение  
 
   Похожие торренты   Автор   Торрент   Размер 
В этой теме нет новых непрочитанных сообщений. Сокровища ацтеков / The Lost Treasure of the Grand Canyon [ужасы, фэнтези, приключения, 2008] BDRip, Mvo

salma3

112 | 35

1.45 ГБ

В этой теме нет новых непрочитанных сообщений. Огонь из преисподней / Fire Down Below [Драма, приключения, 1957] DVDRip, Mvo

salma3

17 | 3

1.37 ГБ

В этой теме нет новых непрочитанных сообщений. Франкенштейн против мумии / Frankenstein vs. The Mummy (Дэмиен Леоне) [Ужасы, 2015] DVDRip, dvo

Dracon

12 | 5

1.46 ГБ

В этой теме нет новых непрочитанных сообщений. Легенда о потерянном / Legend of the Lost [Драма, приключения, 1957] BDRip 1080p, Avo+Sub

salma3

3 | 5

7.66 ГБ

В этой теме нет новых непрочитанных сообщений. Седьмое проклятие / Yuan Zhen-Xia yu Wei Si-Li [ужасы, боевик, 1986] DVDRip, Dvo

salma3

6 | 7

1.34 ГБ

В этой теме нет новых непрочитанных сообщений. День мумии / Day of the Mummy [ужасы, 2014] WEB-DL 720p, Avo+Sub

salma3

995 | 45

2.68 ГБ

В этой теме нет новых непрочитанных сообщений. День мумии / Day of the Mummy [ужасы, 2014] WEB-DLRip, Avo

salma3

252 | 16

707.56 МБ


Начать новую тему Ответить на тему  [ 1 сообщение ] 




Для Мосгорсуда, Роскомнадзора и рекламодателей:: mosgorsud-torrent[собачка]yandex.ru