Торрент файл
скачать торрент магнет ссылка Добавлен: 30 мар 2016, 11:53
Размер: 1.46 ГБ
Сидеров: 0
Личеров: 1
Статус: (salma3)
Автор

СообщениеДобавлено: 30 мар 2016, 11:53 

Не в сети
Супермодератор
Аватара пользователя
Дата регистрации:
15 фев 2012, 16:44
Возраст: 28
Спасибо: 7058 / 2147
Сообщения: 58779
Страна: США
Жанр: боевик
Год выпуска: 1978
Продолжительность: 01:35:34

Перевод: Профессиональный (многоголосый закадровый)
Режиссер: Тед Пост / Ted Post

В ролях: Чак Норрис, Энн Арчер, Джеймс Франсискус, Ллойд Хэйнс, Дэна Эндрюс, Джим Бакус, Лоуренс П. Кэйси, Энтони Маннино, О Сун Тек, Джо Беннетт, Джерри Дуглас, Дэвид Старуолт, Аарон Норрис, Бенжамин Дж. Перри, Джеймс Бэйкон, Виола Харрис

Описание: Кто-то методично уничтожает участников секретной операции «Феникс», проводимой правительством США. Командир спецподразделения «Черные Тигры» майор Джон Букер должен поставить точку в кровавой бойне.

Релиз от:

Качество видео: BDRip
Формат видео: AVI
Видео: 720x400 (1.80:1), 23.976 fps, XviD build 73 ~1984 kbps avg, 0.29 bit/pixel
Аудио: 48 kHz, AC3 Dolby Digital, 2/0 (L,R) ch, ~192 kbps

Сэмпл

General
Format : AVI
Format/Info : Audio Video Interleave
File size : 1.46 GiB
Duration : 1h 35mn
Overall bit rate : 2 186 Kbps
Writing application : VirtualDubMod 1.5.10.3 |
http://www.virtualdub-fr.org || (build 2550/release)
Writing library : VirtualDubMod build 2550/release

Video
ID : 0
Format : MPEG-4 Visual
Format profile : Advanced Simple@L5
Format settings, BVOP : 1
Format settings, QPel : No
Format settings, GMC : No warppoints
Format settings, Matrix : Custom
Codec ID : XVID
Codec ID/Hint : XviD
Duration : 1h 35mn
Bit rate : 1 985 Kbps
Width : 720 pixels
Height : 400 pixels
Display aspect ratio : 16:9
Frame rate : 23.976 fps
Color space : YUV
Chroma subsampling : 4:2:0
Bit depth : 8 bits
Scan type : Progressive
Compression mode : Lossy
Bits/(Pixel*Frame) : 0.287
Stream size : 1.33 GiB (91%)
Writing library : XviD 73

Audio
ID : 1
Format : AC-3
Format/Info : Audio Coding 3
Mode extension : CM (complete main)
Format settings, Endianness : Big
Codec ID : 2000
Duration : 1h 35mn
Bit rate mode : Constant
Bit rate : 192 Kbps
Channel(s) : 2 channels
Channel positions : Front: L R
Sampling rate : 48.0 KHz
Bit depth : 16 bits
Compression mode : Lossy
Stream size : 131 MiB (9%)
Alignment : Split accross interleaves
Interleave, duration : 42 ms (1.00 video frame)
Interleave, preload duration : 500 ms


_________________
Проголосуй за трекер Открытый торрент трекер - RUS-MEDIA.ORG

Проголосуй Открытый торрент трекер - RUS-MEDIA.ORG


Вернуться к началу
 Профиль Отправить личное сообщение  
 
   Похожие торренты   Автор   Торрент   Размер 
В этой теме нет новых непрочитанных сообщений. Черные тигры / Good Guys Wear Black [Боевик, 1978] BDRip-AVC, Mvo

salma3

73 | 42

1.46 ГБ

В этой теме нет новых непрочитанных сообщений. Чёрные тигры / Good Guys Wear Black [боевик, 1978] BDRip 1080p, Mvo

salma3

44 | 9

7.96 ГБ

В этой теме нет новых непрочитанных сообщений. Черные тигры / Good Guys Wear Black [Боевик, 1978] BDRemux 1080р, Mvo

salma3

21 | 4

16.46 ГБ

В этой теме нет новых непрочитанных сообщений. Крутые парни / Крутые ребята / Крутые мужики / Tough Guys [криминал, комедия, 1986] WEB-DL 720p, Dub+Mvo+Sub

salma3

4 | 1

3.36 ГБ

В этой теме нет новых непрочитанных сообщений. [BDWC] Mommy Likes Black Guys 2 / Мамочкам Нравятся Чёрные Парни 2 (Bobby Damone, Acid Rain) [2010 г., Mature, MILF, Older, Cougar, DVDRip]

salma3

0 | 0

1.35 ГБ

В этой теме нет новых непрочитанных сообщений. Крутые парни / Tough Guys [комедия, 1986] WEB-DLRip, Dub

salma3

146 | 22

1.45 ГБ

В этой теме нет новых непрочитанных сообщений. Славные парни / The Nice Guys [криминал, комедия, боевик, 2016] BDRip, Dvo [Кубик в Кубе]

salma3

614 | 69

1.46 ГБ


Начать новую тему Ответить на тему  [ 1 сообщение ] 




Для Мосгорсуда, Роскомнадзора и рекламодателей:: mosgorsud-torrent[собачка]yandex.ru
cron