Торрент файл
скачать торрент магнет ссылка Добавлен: 29 мар 2016, 20:52
Размер: 1.95 ГБ
Сидеров: 50
Личеров: 4
Статус: (salma3)
Автор

СообщениеДобавлено: 29 мар 2016, 20:52 

В сети
Супермодератор
Аватара пользователя
Дата регистрации:
15 фев 2012, 16:44
Возраст: 28
Спасибо: 6594 / 2145
Сообщения: 44278
Год выхода: 2002
Жанр: Драма, биографический
Режиссер: Франко Дзеффирелли / Franco Zeffirelli

В ролях: Фанни Ардан, Джереми Айронс, Джоан Плаурайт, Джей Родан, Гэбриель Джарко, Мануэль Де Блас, Джустино Диаз, Джин Далрик, Стивен Биллингтон, Анна Лелио

О фильме:
1975 год. Оперная прима 50-х Мария Каллас (Ардан), живущая затворницей в Париже, не может простить импресарио Ларри Келли (Айронс) свое последнее японское турне, где слабость ее связок открылась всему миру, - но Келли отваживается переступить порог квартиры Каллас. Старик Дзеффирелли (ему уже 80) блистательно обманывает время, задавая себе вопрос, который должны были бы задать ему критики: есть ли в искусстве жизнь после смерти? Фильм стоит смотреть хотя бы ради Ардан: крах одной стареющей дивы оборачивается триумфом другой. После просмотра фильма Ф. Дзеффирелли тоже самое хочется сказать и о самом маэстро. Дзеффирелли не смотря на возраст остается великим режиссером, внесшим исключительный вклад в развитие мирового кинематографа - чего только стоит его знаменитая экранизация "Ромео и Джульетты". Талант Дзеффирелли безусловен, как и талант Каллас, что, возможно, и объясняет выбор режиссером тематики фильма.



Страна: Италия / Франция / Испания / Великобритания / Румыния
Студия: Cattleya, Medusa Film, Alquimia Cinema
Продолжительность: 01:44:08.600
Перевод: Профессиональный (многоголосый, закадровый)
Файл
Кодек: h.264
Качество: DVDRip-AVC Исходник R5 DVD9 CP DigitaL
Видео: 712x544 (1.85:1) @ 1015x544, 25.000 fps, AVC, ~1785 Kbps, 0.184 bits/pixel
Звук:
Русский, 48.0 KHz, AC3, 6 ch, 448 Kbps
Английский, 48.0 KHz, AC3, 6 ch, 448 Kbps
Субтитры: Русскиe,SRT(UTF-8)
Общее
Уникальный идентификатор : 249853758285514090845900045223957964791 (0xBBF8155EF197A8CEA3807C53A32127F7)
Полное имя : E:FILMSKallas_Navsegda.2002.DVDRip-AVC.mkv
Формат : Matroska
Версия формата : Version 4 / Version 2
Размер файла : 1,95 Гбайт
Продолжительность : 1 ч. 44 м.
Общий поток : 2683 Кбит/сек
Дата кодирования : UTC 2016-03-27 15:19:38
Программа кодирования : mkvmerge v9.0.0 ('Power to progress') 64bit
Библиотека кодирования : libebml v1.3.3 + libmatroska v1.4.4
Видео
Идентификатор : 1
Формат : AVC
Формат/Информация : Advanced Video Codec
Профиль формата : High@L4.1
Параметр CABAC формата : Да
Параметр ReFrames формата : 11 кадров
Идентификатор кодека : V_MPEG4/ISO/AVC
Продолжительность : 1 ч. 44 м.
Битрейт : 1785 Кбит/сек
Ширина : 712 пикселей
Высота : 544 пикселя
Соотношение сторон : 1,85:1
Соотношение сторон в оригинале : 1,85:1
Режим частоты кадров : Постоянный
Частота кадров : 25,000 кадров/сек
Цветовое пространство : YUV
Субдискретизация насыщенности : 4:2:0
Битовая глубина : 8 бит
Тип развёртки : Прогрессивная
Бит/(Пиксели*Кадры) : 0.184
Размер потока : 1,30 Гбайт (67%)
Библиотека кодирования : x264 core 148 r2638 7599210
Настройки программы : cabac=1 / ref=11 / deblock=1:0:0 / analyse=0x3:0x133 / me=umh / subme=11 / psy=1 / psy_rd=1.10:0.15 / mixed_ref=1 / me_range=48 / chroma_me=1 / trellis=2 / 8x8dct=1 / cqm=0 / deadzone=21,11 / fast_pskip=0 / chroma_qp_offset=-3 / threads=8 / lookahead_threads=1 / sliced_threads=0 / nr=0 / decimate=0 / interlaced=0 / bluray_compat=0 / constrained_intra=0 / bframes=9 / b_pyramid=2 / b_adapt=2 / b_bias=0 / direct=3 / weightb=1 / open_gop=0 / weightp=2 / keyint=250 / keyint_min=25 / scenecut=40 / intra_refresh=0 / rc_lookahead=60 / rc=2pass / mbtree=0 / bitrate=1785 / ratetol=1.0 / qcomp=0.60 / qpmin=0 / qpmax=69 / qpstep=4 / cplxblur=20.0 / qblur=0.5 / vbv_maxrate=40000 / vbv_bufsize=50000 / nal_hrd=none / filler=0 / ip_ratio=1.40 / pb_ratio=1.30 / aq=1:1.00
Default : Нет
Forced : Нет
Цветовой диапазон : Limited
Коэффициенты матрицы : BT.601
Аудио #1
Идентификатор : 2
Формат : AC-3
Формат/Информация : Audio Coding 3
Расширение режима : CM (complete main)
Параметр Endianness формата : Big
Идентификатор кодека : A_AC3
Продолжительность : 1 ч. 44 м.
Вид битрейта : Постоянный
Битрейт : 448 Кбит/сек
Каналы : 6 каналов
Расположение каналов : Front: L C R, Side: L R, LFE
Частота : 48,0 КГц
Частота кадров : 31,250 кадров/сек (1536 spf)
Метод сжатия : С потерями
Размер потока : 334 Мбайт (17%)
Язык : Russian
Default : Да
Forced : Нет
Аудио #2
Идентификатор : 3
Формат : AC-3
Формат/Информация : Audio Coding 3
Расширение режима : CM (complete main)
Параметр Endianness формата : Big
Идентификатор кодека : A_AC3
Продолжительность : 1 ч. 44 м.
Вид битрейта : Постоянный
Битрейт : 448 Кбит/сек
Каналы : 6 каналов
Расположение каналов : Front: L C R, Side: L R, LFE
Частота : 48,0 КГц
Частота кадров : 31,250 кадров/сек (1536 spf)
Метод сжатия : С потерями
Размер потока : 334 Мбайт (17%)
Язык : English
Default : Нет
Forced : Нет
Текст
Идентификатор : 4
Формат : UTF-8
Идентификатор кодека : S_TEXT/UTF8
Идентификатор кодека/Информация : UTF-8 Plain Text
Продолжительность : 1 ч. 39 м.
Битрейт : 84 бит/сек
Count of elements : 722
Размер потока : 61,5 Кбайт (0%)
Язык : Russian
Default : Нет
Forced : Нет
Меню
00:00:00.000 : en:Chapter 01
00:00:18.600 : en:Chapter 02
00:10:30.040 : en:Chapter 03
00:18:31.320 : en:Chapter 04
00:24:04.880 : en:Chapter 05
00:28:59.120 : en:Chapter 06
00:37:26.840 : en:Chapter 07
00:42:27.040 : en:Chapter 08
00:54:17.840 : en:Chapter 09
01:03:17.400 : en:Chapter 10
01:17:01.080 : en:Chapter 11
01:28:42.680 : en:Chapter 12
01:35:51.600 : en:Chapter 13


Релиз от: Temperest


_________________
Проголосуй за трекер Открытый торрент трекер - RUS-MEDIA.ORG

Проголосуй Открытый торрент трекер - RUS-MEDIA.ORG



реклама партнёра


Вернуться к началу
 Профиль Отправить личное сообщение  
 
   Похожие торренты   Автор   Торрент   Размер 
В этой теме нет новых непрочитанных сообщений. Навсегда / Forever [Триллер, драма, 2015] WEBDLRip, Mvo

salma3

109 | 33

1.37 ГБ

В этой теме нет новых непрочитанных сообщений. С Сексом Навсегда / Private Penthouse 9: Sex Forever (2001) DVDRip | Rus

salma3

11 | 2

1.36 ГБ

В этой теме нет новых непрочитанных сообщений. Нина навсегда / Nina Forever [ужасы, мелодрама, 2015] WEB-DLRip, dvo

Dracon

946 | 57

1.45 ГБ

В этой теме нет новых непрочитанных сообщений. Нина навсегда / Nina Forever [ужасы, мелодрама, комедия, 2015] BDRip 1080p, Dub [чистый звук]

salma3

214 | 68

8.24 ГБ

В этой теме нет новых непрочитанных сообщений. Клоун навсегда / Klovn Forever (Миккель Нёргор / Mikkel Nørgaard) [2015г., Дания, комедия, HDRip] Sub

Alfredovich

41 | 3

1.42 ГБ

В этой теме нет новых непрочитанных сообщений. Драконы навсегда / Dragons Forever / Fei lung mang jeung [комедия, боевые искусства, 1988] BDRip 1080p, 2Mvo+2Avo

salma3

17 | 7

9.1 ГБ

В этой теме нет новых непрочитанных сообщений. Сладкие мечты / Sweet Dreams: The Story of Patsy Cline [биографический, драма, музыкальный, 1985] DVDRip, Dub

salma3

10 | 4

2.19 ГБ


Начать новую тему Ответить на тему  [ 1 сообщение ] 




Для Мосгорсуда, Роскомнадзора и рекламодателей:: mosgorsud-torrent[собачка]yandex.ru