Торрент файл
скачать торрент магнет ссылка Добавлен: 28 мар 2016, 20:51
Размер: 2.8 ГБ
Сидеров: 48
Личеров: 7
Статус: (salma3)
Автор

СообщениеДобавлено: 28 мар 2016, 20:51 

Не в сети
Супермодератор
Аватара пользователя
Дата регистрации:
15 фев 2012, 16:44
Возраст: 27
Спасибо: 5130 / 2089
Сообщения: 17371
Год выхода: 2003
Страна: США
Студия: Universal Studios Home Entertainment Family Productions
Продолжительность: 01:32:20
Жанр: ужасы, триллер
Режиссер: Луи Морно

В ролях: Джейк Бьюзи, Кари Вурер, С. Томас Хауэлл, Шон Джонстон, Марти Антонини, Дарси Данлоп, Дункан Фрайзер, МакКензи Грэй, Стефен Хэйр, Терри Кинг, ...

Перевод: Профессиональный (многоголосный, закадровый)
О фильме: Одержимый ужасными событиями прошлого, Джим Халси снова решает сразиться со своими внутренними демонами. На этот раз, к нему присоединяется подруга Мэгги: парочке предстоит проехать по тому же зловещему маршруту, что пролегает по безлюдным техасским просторам, и с которого и начался кошмар главного героя.
Спустя много лет милосердие не покинуло Джима — он не смог отказать одинокому незнакомцу, голосующему на обочине. Кто бы мог подумать, что «акт доброй воли» незадачливого водителя окажется второй роковой ошибкой его жизни и превратит обычную поездку к старому другу в настоящий ад…



Кодек: x264
Качество: DVDRip-AVC
Видео: 852x460 , 3000 kbps, 23,976 fps
Аудио #01: AC-3, 6 ch, 448 kbps (Rus) - MVO 1
Аудио #02: AC-3, 6 ch, 448 kbps (Rus) - MVO 2
Аудио #03: AC-3, 6 ch, 448 kbps (Eng)
Субтитры: Английские
За исходник спасибо - igorunja
x264 [info]: frame I:884 Avg QP:15.21 size: 55818
x264 [info]: frame P:34596 Avg QP:17.85 size: 25909
x264 [info]: frame B:97353 Avg QP:20.10 size: 11615
x264 [info]: consecutive B-frames: 4.8% 6.3% 12.4% 20.0% 14.7% 33.8% 4.3% 1.5% 0.9% 0.5% 0.2% 0.4% 0.2%
Общее
Уникальный идентификатор : 187421228400189495394843241006525488350 (0x8D0003FE4B65A764B45574B0C2469CDE)
Полное имя : Попутчик 2 (The Hitcher II I've Been Waiting) 2003 DVDRip.mkv
Формат : Matroska
Версия формата : Version 2
Размер файла : 2,80 Гбайт
Продолжительность : 1 ч. 32 м.
Общий поток : 4345 Кбит/сек
Дата кодирования : UTC 2016-03-27 06:42:21
Программа кодирования : mkvmerge v4.0.0 ('The Stars were mine') сборка от Jun 6 2010 16:18:42
Библиотека кодирования : libebml v1.0.0 + libmatroska v1.0.0
Видео
Идентификатор : 1
Формат : AVC
Формат/Информация : Advanced Video Codec
Профиль формата : High@L4.1
Параметр CABAC формата : Да
Параметр ReFrames формата : 12 кадров
Идентификатор кодека : V_MPEG4/ISO/AVC
Продолжительность : 1 ч. 32 м.
Битрейт : 3000 Кбит/сек
Ширина : 852 пикселя
Высота : 460 пикселей
Соотношение сторон : 1,85:1
Режим частоты кадров : Постоянный
Частота кадров : 23,976 кадра/сек
Цветовое пространство : YUV
Субдискретизация насыщенности : 4:2:0
Битовая глубина : 8 бит
Тип развёртки : Прогрессивная
Бит/(Пиксели*Кадры) : 0.319
Размер потока : 1,88 Гбайт (67%)
Библиотека кодирования : x264 core 146 r2538 121396c
Настройки программы : cabac=1 / ref=12 / deblock=1:-3:-3 / analyse=0x3:0x133 / me=umh / subme=11 / psy=1 / psy_rd=1.00:0.00 / mixed_ref=1 / me_range=32 / chroma_me=1 / trellis=2 / 8x8dct=1 / cqm=0 / deadzone=21,11 / fast_pskip=0 / chroma_qp_offset=-2 / threads=12 / lookahead_threads=2 / sliced_threads=0 / nr=0 / decimate=0 / interlaced=0 / bluray_compat=0 / constrained_intra=0 / bframes=12 / b_pyramid=2 / b_adapt=2 / b_bias=0 / direct=3 / weightb=1 / open_gop=0 / weightp=2 / keyint=240 / keyint_min=23 / scenecut=40 / intra_refresh=0 / rc=2pass / mbtree=0 / bitrate=3000 / ratetol=1.0 / qcomp=0.60 / qpmin=0 / qpmax=69 / qpstep=4 / cplxblur=20.0 / qblur=0.5 / ip_ratio=1.40 / pb_ratio=1.30 / aq=1:0.80
Язык : English
Default : Нет
Forced : Нет
Аудио #1
Идентификатор : 2
Формат : AC-3
Формат/Информация : Audio Coding 3
Расширение режима : CM (complete main)
Параметр Endianness формата : Big
Идентификатор кодека : A_AC3
Продолжительность : 1 ч. 32 м.
Вид битрейта : Постоянный
Битрейт : 448 Кбит/сек
Каналы : 6 каналов
Расположение каналов : Front: L C R, Side: L R, LFE
Частота : 48,0 КГц
Метод сжатия : С потерями
Размер потока : 296 Мбайт (10%)
Заголовок : MVO 1
Язык : Russian
Default : Нет
Forced : Нет
Аудио #2
Идентификатор : 3
Формат : AC-3
Формат/Информация : Audio Coding 3
Расширение режима : CM (complete main)
Параметр Endianness формата : Big
Идентификатор кодека : A_AC3
Продолжительность : 1 ч. 32 м.
Вид битрейта : Постоянный
Битрейт : 448 Кбит/сек
Каналы : 6 каналов
Расположение каналов : Front: L C R, Side: L R, LFE
Частота : 48,0 КГц
Метод сжатия : С потерями
Размер потока : 296 Мбайт (10%)
Заголовок : MVO 2
Язык : Russian
Default : Нет
Forced : Нет
Аудио #3
Идентификатор : 4
Формат : AC-3
Формат/Информация : Audio Coding 3
Расширение режима : CM (complete main)
Параметр Endianness формата : Big
Идентификатор кодека : A_AC3
Продолжительность : 1 ч. 32 м.
Вид битрейта : Постоянный
Битрейт : 448 Кбит/сек
Каналы : 6 каналов
Расположение каналов : Front: L C R, Side: L R, LFE
Частота : 48,0 КГц
Метод сжатия : С потерями
Размер потока : 296 Мбайт (10%)
Язык : English
Default : Нет
Forced : Нет
Текст
Идентификатор : 5
Формат : UTF-8
Идентификатор кодека : S_TEXT/UTF8
Идентификатор кодека/Информация : UTF-8 Plain Text
Заголовок : SDH
Язык : English
Default : Нет
Forced : Нет



_________________



реклама партнёра


Вернуться к началу
 Профиль Отправить личное сообщение  
 
   Похожие торренты   Автор   Торрент   Размер 
В этой теме нет новых непрочитанных сообщений. Жуки / Bugs [ужасы, фантастика, триллер, 2003] DVDRip, Mvo

salma3

3 | 4

1.46 ГБ

В этой теме нет новых непрочитанных сообщений. Сад Любви / Garden of Love [ужасы, триллер, 2003] DVDRip, Avo

salma3

37 | 6

1.46 ГБ

В этой теме нет новых непрочитанных сообщений. Резня болельщиц / Cheerleader Massacre [ужасы, триллер, 2003] DVDRip, Avo

salma3

136 | 20

1.46 ГБ

В этой теме нет новых непрочитанных сообщений. Кричащие мертвецы / Screaming Dead [ужасы, триллер, 2003] DVDRip, Avo

salma3

112 | 9

1.27 ГБ

В этой теме нет новых непрочитанных сообщений. Скажи что-нибудь / Kucch To Hai [ужасы, триллер, драма, мелодрама, детектив, 2003] DVDRip, Dvo

salma3

6 | 8

1.47 ГБ

В этой теме нет новых непрочитанных сообщений. Хозяева подземелий / Rats [ужасы, фантастика, триллер, 2003] DVDRip, Mvo [Лицензия] [UNRATED]

salma3

86 | 6

1.45 ГБ

В этой теме нет новых непрочитанных сообщений. Дневник Елены Римбауер / The Diary of Ellen Rimbauer [ужасы, триллер, драма, детектив, 2003] DVDRip, Mvo+Avo [Лицензия]

salma3

9 | 3

1.46 ГБ


Начать новую тему Ответить на тему  [ 1 сообщение ] 




Для Мосгорсуда, Роскомнадзора и рекламодателей:: mosgorsud-torrent[собачка]yandex.ru