Торрент файл
скачать торрент магнет ссылка Добавлен: 28 мар 2016, 11:28
Размер: 1.46 ГБ
Сидеров: 74
Личеров: 1
Статус: (salma3)
Автор

СообщениеДобавлено: 28 мар 2016, 11:28 

Не в сети
Супермодератор
Аватара пользователя
Дата регистрации:
15 фев 2012, 16:44
Возраст: 27
Спасибо: 5143 / 2090
Сообщения: 17475
Черная вдова / Black Widow

Год выхода: 1987
Жанр: Детектив, Триллер, Криминал
Режиссер: Боб Рейфелсон

В ролях: Дебра Уингер, Тереза Расселл, Деннис Хоппер, Сами Фрей, Никол Уильямсон, Терри О’Куинн, Джеймс Хонг, Дайан Лэдд,

О фильме:
Красивая молодая женщина Кэтрин (Тереза Расселл) нашла способ отлично устроиться в жизни. Она выходит замуж только за миллионеров и со временем добивается, чтобы все их состояние было переведено на ее имя. Затем с помощью яда, не оставляющего следов, убивает своих мужей, становясь единственной наследницей. Кэтрин умна, хитра, изобретательна и очень осторожна. Она никогда не повторяется. Новую жертву выбирает долго и тщательно. Изменяя внешность до неузнаваемости, она каждый раз расставляет ловушку в новом месте, переезжая из Далласа в Сиэтл, затем на Гавайи. Никому и в голову не приходит хоть в чем-то заподозрить Кэтрин. Никому, кроме проницательного агента ФБР Александры Барнс (Дебра Уингер)



Страна: США
Продолжительность: 01:41:51
Перевод: Профессиональный pмногоголосый[ [Лицензия от 20th Century Fox]

Файл
Качество: BDRip
Формат файла: AVI
Видео кодек: XviD
Аудио кодек: AC3
Видео: 704x384, 23,976 fps, ~1598 kbps
Звук: AC3, 48,0 khz, 5.1 ch, 448 kbps


Общее
Полное имя : Black.Widow.1987.BDRip.avi
Формат : AVI
Формат/Информация : Audio Video Interleave
Размер файла : 1,46 Гбайт
Продолжительность : 1 ч. 41 м.
Общий поток : 2056 Кбит/сек
Программа кодирования : VirtualDubMod 1.5.10.3 | www.virtualdub-fr.org || (build 2550/release)
Библиотека кодирования : VirtualDubMod build 2550/release
Видео
Идентификатор : 0
Формат : MPEG-4 Visual
Профиль формата : Advanced Simple@L5
Параметр BVOP формата : 2
Параметр QPel формата : Нет
Параметр GMC формата : Без точки перехода
Параметр матрицы формата : Выборочная
Идентификатор кодека : XVID
Идентификатор кодека/Подсказка : XviD
Продолжительность : 1 ч. 41 м.
Битрейт : 1598 Кбит/сек
Ширина : 704 пикс.
Высота : 384 пикс.
Соотношение сторон : 16:9
Частота кадров : 23,976 кадр/сек
Цветовое пространство : YUV
Подвыборка цветности : 4:2:0
Битовая глубина : 8 бит
Тип развёртки : Прогрессивная
Метод сжатия : С потерями
Бит/(Пиксели*Кадры) : 0.247
Размер потока : 1,14 Гбайт (78%)
Библиотека кодирования : XviD 73
Аудио
Идентификатор : 1
Формат : AC-3
Формат/Информация : Audio Coding 3
Расширение режима : CM (complete main)
Идентификатор кодека : 2000
Продолжительность : 1 ч. 41 м.
Вид битрейта : Постоянный
Битрейт : 448 Кбит/сек
Канал(ы) : 6 канала(ов)
Расположение каналов : Front: L C R, Side: L R, LFE
Частота : 48,0 КГц
Битовая глубина : 16 бит
Метод сжатия : С потерями
Размер потока : 326 Мбайт (22%)
Выравнивание : Разделение по промежуткам
Продолжительность промежутка : 42 мс. (1,00 видеокадр)
Время предзагрузки промежутка : 500 ms

Релиз от: Leon-masl


_________________



реклама партнёра


Вернуться к началу
 Профиль Отправить личное сообщение  
 
   Похожие торренты   Автор   Торрент   Размер 
В этой теме нет новых непрочитанных сообщений. Секретные материалы Мстителей: Черная Вдова и Каратель / Avengers Confidential: Black Widow & Punisher (Кенити Симидзу) [2014, мультфильм, фантастика, BDRip 720p]

Nickolas3435

163 | 9

2.09 ГБ

В этой теме нет новых непрочитанных сообщений. Секретные Материалы Мстителей: Черная Вдова и Каратель / Avengers Confidential: Black Widow & Punisher (Кенити Симидзу) [2014, Мультфильм, HDRip]

Nickolas3435

142 | 5

1.37 ГБ

В этой теме нет новых непрочитанных сообщений. Кровавая вдова / Blood Widow (Джерами Бэкхелт) [ужасы, 2014] BDRip 720p, avo

Dracon

144 | 12

3.39 ГБ

В этой теме нет новых непрочитанных сообщений. Черная роза / Black Rose [детектив, триллер, криминал, 2014] TS, dub

Dracon

13 | 4

694.84 МБ

В этой теме нет новых непрочитанных сообщений. Кровавая вдова / Blood Widow [Ужасы, 2014] HDRip, avo

Dracon

133 | 17

735.72 МБ

В этой теме нет новых непрочитанных сообщений. Черная роза / Black Rose [детектив, триллер, криминал, 2014] WEBRip, dub

Dracon

202 | 7

1.37 ГБ

В этой теме нет новых непрочитанных сообщений. Черная роза / Black Rose [Детектив, триллер, криминал, 2014] DVDRip

Dracon

350 | 10

1.37 ГБ


Начать новую тему Ответить на тему  [ 1 сообщение ] 




Для Мосгорсуда, Роскомнадзора и рекламодателей:: mosgorsud-torrent[собачка]yandex.ru