Торрент файл
скачать торрент магнет ссылка Добавлен: 27 мар 2016, 12:08
Размер: 1.46 ГБ
Сидеров: 2
Личеров: 0
Статус: (salma3)
Автор

СообщениеДобавлено: 27 мар 2016, 12:08 

В сети
Супермодератор
Аватара пользователя
Дата регистрации:
15 фев 2012, 16:44
Возраст: 27
Спасибо: 5121 / 2089
Сообщения: 17319
Страна[/color]: США, Великобритания
Жанр
: ужасы, фантастика, триллер, драма, биография
Год выпуска: 1989
Продолжительность: 01:49:14

Перевод: Профессиональный (многоголосый закадровый) - ТВ3
Режиссер: Филипп Мора / Philippe Mora


В ролях: Кристофер Уокен, Линдси Краус, Фрэнсис Стернхаген, Андреас Кацулас, Терри Хэнауэр, Джоэль Карлсон, Джон Деннис Джонстон, Ди Ди Решер, Эйлин Фицпатрик, Р.Дж. Миллер

Описание: В основу фильма положена подлинная сенсационная история, случившаяся с американским писателем-фантастом Уитли Стрибером. Он переезжает с женой и сыном в загородный дом, чтобы закончить новый роман. Дальнейшие события, участником которых оказывается Стрибер, станут основой его документального бестселлера о контакте с инопланетной цивилизацией.
Все подробности происшедшего Стрибер смог восстановить только после нескольких сеансов глубокого гипноза. Были ли эти встречи с внеземным разумом реальностью, или они всего лишь плод невероятно яркого воображения писателя?


Качество видео:
Формат видео
: AVI
Видео: 720x304 (2.37:1), 23.976 fps, XviD build 73 ~1706 kbps avg, 0.33 bit/pixel
Аудио: 48 kHz, AC3 Dolby Digital, 2/0 (L,R) ch, ~192 kbps

Общее
Полное имя : H:\Communion.1989.web-dlrip_[1.46]_[teko].avi
Формат : AVI
Формат/Информация : Audio Video Interleave
Размер файла : 1,46 Гбайт
Продолжительность : 1 ч. 49 м.
Общий поток : 1908 Кбит/сек
Программа кодирования : VirtualDubMod 1.5.10.3 | http://www.virtualdub-fr.org || (build 2550/release)
Библиотека кодирования : VirtualDubMod build 2550/release

Видео
Идентификатор : 0
Формат : MPEG-4 Visual
Профиль формата : Advanced Simple@L5
Параметр BVOP формата : 2
Параметр QPel формата : Нет
Параметр GMC формата : Без точки перехода
Параметр матрицы формата : Выборочная
Идентификатор кодека : XVID
Идентификатор кодека/Подсказка : XviD
Продолжительность : 1 ч. 49 м.
Битрейт : 1707 Кбит/сек
Ширина : 720 пикселей
Высота : 304 пикселя
Соотношение сторон : 2,35:1
Частота кадров : 23,976 кадра/сек
Цветовое пространство : YUV
Субдискретизация насыщенности : 4:2:0
Битовая глубина : 8 бит
Тип развёртки : Прогрессивная
Метод сжатия : С потерями
Бит/(Пиксели*Кадры) : 0.325
Размер потока : 1,30 Гбайт (89%)
Библиотека кодирования : XviD 73

Аудио
Идентификатор : 1
Формат : AC-3
Формат/Информация : Audio Coding 3
Расширение режима : CM (complete main)
Параметр Endianness формата : Big
Идентификатор кодека : 2000
Продолжительность : 1 ч. 49 м.
Вид битрейта : Постоянный
Битрейт : 192 Кбит/сек
Каналы : 2 канала
Расположение каналов : Front: L R
Частота : 48,0 КГц
Битовая глубина : 16 бит
Метод сжатия : С потерями
Размер потока : 150 Мбайт (10%)
Выравнивание : Разделение по промежуткам
Продолжительность промежутка : 42 мс. (1,00 видеокадр)
Время предзагрузки промежутка : 500 мс.
Релиз группы:




_________________



реклама партнёра


Вернуться к началу
 Профиль Отправить личное сообщение  
 
   Похожие торренты   Автор   Торрент   Размер 
В этой теме нет новых непрочитанных сообщений. Контакт / Contact [фантастика, триллер, драма, детектив, 1997] BDRip 720p, Dub+Mvo+Avo+Sub

salma3

46 | 7

6.85 ГБ

В этой теме нет новых непрочитанных сообщений. Кем / Чем мы становимся / Sorgenfri [ужасы, фантастика, триллер, драма, 2015] WEB-DLRip, Dvo

salma3

181 | 3

1.37 ГБ

В этой теме нет новых непрочитанных сообщений. Вирус / Viral [ужасы, фантастика, триллер, драма, 2016] WEB-DLRip, Mvo

salma3

1471 | 94

1.36 ГБ

В этой теме нет новых непрочитанных сообщений. Куколка  / Chrysalis [фантастика, ужасы, триллер, драма, 2014] WEB-DLRip, dvo

Dracon

5 | 2

1.43 ГБ

В этой теме нет новых непрочитанных сообщений. Левиафан / Leviathan [ужасы, фантастика, триллер, приключения, 1989] BDRip, Mvo+Avo

salma3

299 | 13

1.46 ГБ

В этой теме нет новых непрочитанных сообщений. Вирус / Viral [ужасы, фантастика, триллер, драма, 2016] WEB-DLRip, Dub [Звук с TS]

salma3

464 | 41

1.36 ГБ

В этой теме нет новых непрочитанных сообщений. Левиафан / Leviathan [Ужасы, фантастика, триллер, приключения, 1989] BDRip 720p, Mvo+Avo+Sub

salma3

36 | 5

6.18 ГБ


Начать новую тему Ответить на тему  [ 1 сообщение ] 




Для Мосгорсуда, Роскомнадзора и рекламодателей:: mosgorsud-torrent[собачка]yandex.ru