Торрент файл
скачать торрент магнет ссылка Добавлен: 27 мар 2016, 12:07
Размер: 1.14 ГБ
Сидеров: 2
Личеров: 1
Статус: (salma3)
Автор

СообщениеДобавлено: 27 мар 2016, 12:07 

В сети
Супермодератор
Аватара пользователя
Дата регистрации:
15 фев 2012, 16:44
Возраст: 27
Спасибо: 5130 / 2089
Сообщения: 17350
Страна: Канада
Жанр: Криминальная драма
Год выпуска: 1987
Продолжительность: 01:36:45

Перевод: Авторский (одноголосый закадровый) Андрей Гаврилов
Режиссер: Френсис Манкевич / Francis Mankiewicz

В ролях: Кеннет Уэлш, Р.Х. Томсон, Уэйн Робсон, Мэгги Хакулак, Пьер Шаньон, Ги Товетт, Грэм Кэмпбелл, Том Харви, Джордж Блумфилд

Описание: Канадский торговец наркотиками заработал большие деньги и решил завязать с этим грязным бизнесом. Но мафия просто так не отпускает из своих рядов. Его преследуют гангстеры, банда байкеров и коррумпированные полицейские.

Доп. информация: Дорожка с А. Гавриловым синхронизирована и наложена ale_x2008 при помощи Sony Vegas и VirtualDubMod.
За оцифрованную с VHS дорожку благодарим - budulai-8

Релиз

Сэмпл: https://yadi.sk/i/NMnGWgVUqW8mE

Качество видео: VHSRip
Формат видео: AVI
Видео: XviD build 46, 672x464 (1.45:1), 23.976 fps, 1480 kbps avg, 0.20 bit/pixel
Аудио: AC3 Dolby Digital, 48000Hz, 2/0 (L,R) ch (mono), 192.00 kbps avg
И затем вы умираете - And Then You Die (by ale_x2008).avi
Format : AVI
Format/Info : Audio Video Interleave
File size : 1.14 GiB
Duration : 1h 36mn
Overall bit rate : 1 682 Kbps
Movie name : И затем вы умираете - And Then You Die (by ale_x2008)
Director : by ale_x2008
Writing application : VirtualDubMod 1.5.10.3 (build 2550/release)
Copyright : Edich2
Comment : RuTracker.org

Video
ID : 0
Format : MPEG-4 Visual
Format profile : Advanced Simple@L5
Format settings, BVOP : 1
Format settings, QPel : No
Format settings, GMC : No warppoints
Format settings, Matrix : Custom
Codec ID : XVID
Codec ID/Hint : XviD
Duration : 1h 36mn
Bit rate : 1 481 Kbps
Width : 672 pixels
Height : 464 pixels
Display aspect ratio : 1.448
Frame rate : 23.976 (23976/1000) fps
Color space : YUV
Chroma subsampling : 4:2:0
Bit depth : 8 bits
Scan type : Progressive
Compression mode : Lossy
Bits/(Pixel*Frame) : 0.198
Stream size : 1.00 GiB (88%)
Writing library : XviD 1.1.2 (UTC 2006-11-01)

Audio
ID : 1
Format : AC-3
Format/Info : Audio Coding 3
Mode extension : CM (complete main)
Format settings, Endianness : Big
Codec ID : 2000
Duration : 1h 36mn
Bit rate mode : Constant
Bit rate : 192 Kbps
Channel(s) : 2 channels
Channel positions : Front: L R
Sampling rate : 48.0 KHz
Frame rate : 31.250 fps (1536 spf)
Compression mode : Lossy
Stream size : 133 MiB (11%)
Alignment : Split accross interleaves
Interleave, duration : 42 ms (1.00 video frame)
Interleave, preload duratio : 500 ms




_________________



реклама партнёра


Вернуться к началу
 Профиль Отправить личное сообщение  
 
   Похожие торренты   Автор   Торрент   Размер 
В этой теме нет новых непрочитанных сообщений. Истребители мужчин / Mankillers [Боевик, 1987] VHSRip, Avo

salma3

1 | 0

1.44 ГБ

В этой теме нет новых непрочитанных сообщений. Мадрид, 1987 год / Madrid, 1987 (Давид Труэба / David Trueba) [2011г., драма, DVDRip] Sub

Alfredovich

58 | 5

1.45 ГБ

В этой теме нет новых непрочитанных сообщений. U2 - Modena 1987 (Bootleg, 3CD Box Set) [1987, Rock, Miscellaneous, MP3]

PriZraK

0 | 1

463.12 МБ

В этой теме нет новых непрочитанных сообщений. Убить дважды [01-04 из 04] [Криминальная драма, 2013] SATRip

Dracon

434 | 21

2.31 ГБ

В этой теме нет новых непрочитанных сообщений. Мажор [01-10 из 12] [Криминальная драма, 2014] HDTV 1080i

Dracon

В этой теме нет новых непрочитанных сообщений. Хорошие руки [01-12 из 12] [Криминальная драма, 2014] HDTVRip

Dracon

825 | 111

8.5 ГБ

В этой теме нет новых непрочитанных сообщений. Мажор [01-12 из 12] [Криминальная драма, 2014] HDTV 1080i

Dracon

434 | 305

40.62 ГБ


Начать новую тему Ответить на тему  [ 1 сообщение ] 




Для Мосгорсуда, Роскомнадзора и рекламодателей:: mosgorsud-torrent[собачка]yandex.ru