Торрент файл
скачать торрент магнет ссылка Добавлен: 26 мар 2016, 21:37
Размер: 1.45 ГБ
Сидеров: 2
Личеров: 1
Статус: (salma3)
Автор

СообщениеДобавлено: 26 мар 2016, 21:37 

Не в сети
Супермодератор
Аватара пользователя
Дата регистрации:
15 фев 2012, 16:44
Возраст: 27
Спасибо: 5131 / 2089
Сообщения: 17372
Страна: США
Жанр: Комедия , триллер , криминал
Год выпуска: 1999
Продолжительность: 1:33:12

Перевод: Авторский (одноголосый закадровый) Ю.Сербин
Режиссер: Карл Колперт / Carl Colpaert

В ролях: Эрик Робертс, Камилла Овербай Рус, Энгус МакФадьен, Брэд Гэррет, Джо Витерелли, Дэмиан Чапа, Даниэла Амавия, Роджер Гуэнвёр Смит, Рэйн Феникс, Доун Изон

Описание: Колин Уэнтворт удачливый и умный предприниматель, который всегда знает, что ему нужно. Однажды он решает избавиться от своего жадного партнера по бизнесу. Фрэд - друг Колина Уэнтворта организовывает убийство. Жена убитого остаётся единственной наследницей всего состояния своего покойного мужа. Колин Уэнтворт нанимает двух головорезов , чтобы те избавились и от неё , но она сбегает, чтобы отомстить.

Доп. информация: За звуковую дорожку спасибо Fikaloid

Сэмпл: https://www.sendspace.com/file/ezjmnl

Качество видео: VHSRip
Формат видео: AVI
Видео: XviD MPEG-4 , 720x480 (1.50:1) , 25.000 fps , 2 030 Kbps
Аудио: АC3 , 48 kHz , 192.00 kbps avg , 2/0 (L,R) ch
Complete name Долина смерти 1999.avi
Format : AVI
Format/Info : Audio Video Interleave
File size : 1.45 GiB
Duration : 1h 33mn
Overall bit rate : 2 232 Kbps
Writing application : VirtualDubMod 1.5.10.3 | http://www.virtualdub-fr.org || (build 2550/release)
Writing library : VirtualDubMod build 2550/release

Video
ID : 0
Format : MPEG-4 Visual
Format profile : Advanced Simple@L5
Format settings, BVOP : 1
Format settings, QPel : No
Format settings, GMC : No warppoints
Format settings, Matrix : Custom
Codec ID : XVID
Codec ID/Hint : XviD
Duration : 1h 33mn
Bit rate : 2 030 Kbps
Width : 720 pixels
Height : 480 pixels
Display aspect ratio : 3:2
Frame rate : 25.000 fps
Color space : YUV
Chroma subsampling : 4:2:0
Bit depth : 8 bits
Scan type : Progressive
Compression mode : Lossy
Bits/(Pixel*Frame) : 0.235
Stream size : 1.32 GiB (91%)
Writing library : XviD 73

Audio
ID : 1
Format : AC-3
Format/Info : Audio Coding 3
Mode extension : CM (complete main)
Format settings, Endianness : Big
Codec ID : 2000
Duration : 1h 33mn
Bit rate mode : Constant
Bit rate : 192 Kbps
Channel(s) : 2 channels
Channel positions : Front: L R
Sampling rate : 48.0 KHz
Frame rate : 31.250 fps (1536 spf)
Compression mode : Lossy
Stream size : 128 MiB (9%)
Alignment : Split accross interleaves
Interleave, duration : 40 ms (1.00 video frame)
Interleave, preload duratio : 500 ms


_________________



реклама партнёра


Вернуться к началу
 Профиль Отправить личное сообщение  
 
   Похожие торренты   Автор   Торрент   Размер 
В этой теме нет новых непрочитанных сообщений. Долина смерти / Death Valley [S01] (Дрю Дэйуолт, Остин Ридинг, Джордан Вот-Робертс) [2011, ужасы, комедия, WEB-DLRip]

Dracon

6 | 39

4.32 ГБ

В этой теме нет новых непрочитанных сообщений. Кремниевая долина / Силиконовая долина / Silicon Valley [02x01-06 из 10] (Майк Джадж) [2015, комедия, HDTVRip | Кубик в Кубе]

Nickolas3435

80 | 18

1.75 ГБ

В этой теме нет новых непрочитанных сообщений. Оператор смерти / Stringer [триллер, 1999] DVDRip, Mvo

salma3

54 | 3

1.46 ГБ

В этой теме нет новых непрочитанных сообщений. Жажда смерти 5: Лик смерти / Death Wish V: The Face of Death [Боевик, Криминал, Триллер, 1994] BDRip-AVC, mvo

salma3

17 | 4

2.85 ГБ

В этой теме нет новых непрочитанных сообщений. Грёзы красавицы / The Cyberstalking [Триллер, фантастика, драма, 1999] VHSRip, Mvo

salma3

11 | 4

650.38 МБ

В этой теме нет новых непрочитанных сообщений. Как рыбка без воды / Like a fish out of water [Триллер, Комедия, Криминал, 1999] DVDRip, Mvo

salma3

26 | 2

1.46 ГБ

В этой теме нет новых непрочитанных сообщений. Пальцы веером / Two Hands [Триллер, комедия, криминал, 1999] ВDRip 720р, Dvo

salma3

29 | 1

6.44 ГБ


Начать новую тему Ответить на тему  [ 1 сообщение ] 




Для Мосгорсуда, Роскомнадзора и рекламодателей:: mosgorsud-torrent[собачка]yandex.ru