Торрент файл
скачать торрент магнет ссылка Добавлен: 26 мар 2016, 21:35
Размер: 702.18 МБ
Сидеров: 2
Личеров: 0
Статус: (salma3)
Автор

СообщениеДобавлено: 26 мар 2016, 21:35 

Не в сети
Супермодератор
Аватара пользователя
Дата регистрации:
15 фев 2012, 16:44
Возраст: 27
Спасибо: 5135 / 2089
Сообщения: 17406
Страна: США, Китай
Жанр: Фантастический боевик
Год выпуска: 1997
Продолжительность: 01:38:38

Перевод: Авторский (одноголосый закадровый) Юрий Сербин (Видеосервис)
Режиссер: Ронни Ю / Ronny Yu

В ролях: Энгус МакФадьен, Марио Йедидия, Марли Шелтон, Чао Ли Чи, Джек Тейт, Даг Джонс, Дон В. Льюис, Дж. Тодд Адамс, Эдриэнн Коркоран, Майкл Дж. Андерсон

Описание: Райан, хромоногий подросток, страдающий от насмешек ребят, прекрасно разбирается в американском футболе, но сам играть не может. Он дает дельный совет лучшему игроку школьной команды, что приносит победу, а его лучший друг Чаки при девочках говорит этому физически крепкому, но морально «хромому» кумиру, чтобы тот сказал спасибо. Парень вынужден признать авторство за хромоножкой и приглашает его вместе с другом «потусоваться». Дружеская встреча оказалась подлым испытанием. Райан должен был пройти по узкой трубе через водозабор, падение в который было равносильно смерти. И Райан падает, но не погибает, а попадает в волшебную страну, о которой ему рассказывал его взрослый друг, добрый и мудрый повар-китаец, настоящий виртуоз своего дела. Райан принимает участие в событиях этого волшебного мира вместе с доблестными воинами, сражающимися с силами зла во главе с подлым и коварным Комодо.

Доп. информация: Дорожка с Ю. Сербиным синхронизирована и наложена ale_x2008 при помощи Sony Vegas и VirtualDubMod. Восстановлен правильный стереоэффект.
За оцифрованную с VHS дорожку благодарим - Fikaloid и за предоставленный видеоряд - Simpun

Релиз

Сэмпл: https://yadi.sk/i/x9Atw5ZbqVbCy

Качество видео: DVDRip
Формат видео: AVI
Видео: XviD, 720x544 (1.32:1), 25.00 fps, 793 kbps avg, 0.08 bit/pixel
Аудио: AC3 Dolby Digital, 48000Hz, 2/0 (L,R) ch (stereo), 192.00 kbps avg
Доблестные воины - Warriors of Virtue (by ale_x2008).avi
Format : AVI
Format/Info : Audio Video Interleave
File size : 702 MiB
Duration : 1h 38mn
Overall bit rate : 995 Kbps
Movie name : Доблестные воины - Warriors of Virtue (by ale_x2008)
Director : by ale_x2008
Writing application : VirtualDubMod 1.5.10.3 (build 2550/release)
Copyright : Edich2
Comment : RuTracker.org

Video
ID : 0
Format : MPEG-4 Visual
Format profile : Advanced Simple@L5
Format settings, BVOP : 1
Format settings, QPel : No
Format settings, GMC : No warppoints
Format settings, Matrix : Custom
Codec ID : XVID
Codec ID/Hint : XviD
Duration : 1h 38mn
Bit rate : 794 Kbps
Width : 720 pixels
Height : 544 pixels
Display aspect ratio : 4:3
Frame rate : 25.000 fps
Color space : YUV
Chroma subsampling : 4:2:0
Bit depth : 8 bits
Scan type : Progressive
Compression mode : Lossy
Bits/(Pixel*Frame) : 0.081
Stream size : 560 MiB (80%)
Writing library : XviD 1.0.0 (UTC 2004-05-09)

Audio
ID : 1
Format : AC-3
Format/Info : Audio Coding 3
Mode extension : CM (complete main)
Format settings, Endianness : Big
Codec ID : 2000
Duration : 1h 38mn
Bit rate mode : Constant
Bit rate : 192 Kbps
Channel(s) : 2 channels
Channel positions : Front: L R
Sampling rate : 48.0 KHz
Frame rate : 31.250 fps (1536 spf)
Compression mode : Lossy
Stream size : 135 MiB (19%)
Alignment : Split accross interleaves
Interleave, duration : 40 ms (1.00 video frame)
Interleave, preload duratio : 500 ms




_________________



реклама партнёра


Вернуться к началу
 Профиль Отправить личное сообщение  
 
   Похожие торренты   Автор   Торрент   Размер 
В этой теме нет новых непрочитанных сообщений. Воины джунглей / Jungle warriors [Боевик, 1984] DVDRip, Avo

salma3

22 | 6

1.37 ГБ

В этой теме нет новых непрочитанных сообщений. Кровавые воины / Blood Warriors [боевик, драма, 1993] DVDRip, Mvo+Avo

salma3

12 | 3

1.46 ГБ

В этой теме нет новых непрочитанных сообщений. Воины дюн / Dune Warriors [фантастика, боевик, приключения, 1991] HDRip, Avo

salma3

38 | 8

1.47 ГБ

В этой теме нет новых непрочитанных сообщений. Воины Терра / Warriors of Terra [ужасы, фантастика, 2006] DVDRip,Dvo

salma3

76 | 3

1.33 ГБ

В этой теме нет новых непрочитанных сообщений. Воины дракона / Dragon Warriors (Маклейн Нельсон, Стивен Шимек) [2015, фэнтези, боевик, комедия, SATRip] mvo

Nickolas3435

225 | 20

1.45 ГБ

В этой теме нет новых непрочитанных сообщений. Космические воины / Space Warriors [семейный, 2013] HDRip, Mvo

Dracon

119 | 4

1.37 ГБ

В этой теме нет новых непрочитанных сообщений. Anal Warriors / Анальные Воины (MimeFreak, Arch Angel) [2014 г., Gonzo, IR, Anal, 400p, DVDRip] (Split Scenes+BTS) (Dana DeArmond, Adriana Chechik, Natalia Starr, Jada Stevens, Dahlia Sky) RD: 15.12.2014.

friizze

73 | 26

2.33 ГБ


Начать новую тему Ответить на тему  [ 1 сообщение ] 




Для Мосгорсуда, Роскомнадзора и рекламодателей:: mosgorsud-torrent[собачка]yandex.ru