Торрент файл
скачать торрент магнет ссылка Добавлен: 26 мар 2016, 21:23
Размер: 1.46 ГБ
Сидеров: 534
Личеров: 15
Статус: (salma3)
Автор

СообщениеДобавлено: 26 мар 2016, 21:23 

Не в сети
Супермодератор
Аватара пользователя
Дата регистрации:
15 фев 2012, 16:44
Возраст: 27
Спасибо: 5139 / 2089
Сообщения: 17425
Производство: США
Жанр: Фантастика, фэнтези, боевик, приключения
Режиссер: Джей Джей Абрамс

Актеры: Харрисон Форд, Энди Серкис, Кэрри Фишер, Донал Глисон, Гвендолин Кристи, Марк Хэмилл, Оскар Айзек, Лупита Нионго, Адам Драйвер, Уорвик Дэвис

Описание:
Через тридцать лет после гибели Дарта Вейдера и Императора галактика по-прежнему в опасности. Государственное образование Новый Порядок во главе с их таинственным верховным лидером Сноуком и его правой рукой Кайло Реном идёт по стопам Империи, пытаясь захватить всю власть. В это нелёгкое время судьба сводит юную девушку Рей и бывшего штурмовика Нового Порядка Финна с героями времён войны с Империей — Ханом Соло, Чубаккой и Королевой Леей. Вместе они должны дать бой Новому Порядку, однако настаёт тот момент, когда становится очевидно, что лишь джедаи могут остановить Сноука и Кайло Рена. И в галактике в живых остаётся только один…




Релиз от: K.E.N (NNM-CLUB)
Продолжительность: 02:18:06
Сэмпл
Перевод: Дублированный (чистый звук)
Субтитры: Отсутствуют

Качество видео: HDRip
[b]Видео:
688x288 (2.39:1), 23.976 fps, XviD build 73 ~1312 kbps, 0.28 bit/pixel
Аудио: 48 kHz, AC3 Dolby Digital, 2/0 (L,R) ch, ~192 kbps

Формат : AVI
Формат/Информация : Audio Video Interleave
Размер файла : 1,46 Гбайт
Продолжительность : 2 ч. 18 м.
Общий поток : 1514 Кбит/сек
Программа кодирования : VirtualDubModRus 1.5.10.2 (build 2542/release)
Библиотека кодирования : VirtualDubMod build 2542/release
Видео
Идентификатор : 0
Формат : MPEG-4 Visual
Профиль формата : Advanced Simple@L5
Параметр BVOP формата : 1
Параметр QPel формата : Нет
Параметр GMC формата : Без точки перехода
Параметр матрицы формата : Выборочная
Идентификатор кодека : XVID
Идентификатор кодека/Подсказка : XviD
Продолжительность : 2 ч. 18 м.
Битрейт : 1313 Кбит/сек
Ширина : 688 пикселей
Высота : 288 пикселей
Соотношение сторон : 2,40:1
Частота кадров : 23,976 кадра/сек
Цветовое пространство : YUV
Субдискретизация насыщенности : 4:2:0
Битовая глубина : 8 бит
Тип развёртки : Прогрессивная
Метод сжатия : С потерями
Бит/(Пиксели*Кадры) : 0.276
Размер потока : 1,27 Гбайт (87%)
Библиотека кодирования : XviD 73
Аудио
Идентификатор : 1
Формат : AC-3
Формат/Информация : Audio Coding 3
Расширение режима : CM (complete main)
Параметр Endianness формата : Big
Идентификатор кодека : 2000
Продолжительность : 2 ч. 18 м.
Вид битрейта : Постоянный
Битрейт : 192 Кбит/сек
Каналы : 2 канала
Расположение каналов : Front: L R
Частота : 48,0 КГц
Битовая глубина : 16 бит
Метод сжатия : С потерями
Размер потока : 190 Мбайт (13%)
Выравнивание : Разделение по промежуткам
Продолжительность промежутка : 42 мс. (1,00 видеокадр)
Время предзагрузки промежутка : 500 мс.


_________________



реклама партнёра


Вернуться к началу
 Профиль Отправить личное сообщение  
 
   Похожие торренты   Автор   Торрент   Размер 
В этой теме нет новых непрочитанных сообщений. Звёздные войны: Пробуждение силы / Star Wars: Episode VII - The Force Awakens [фантастика, фэнтези, боевик, приключения, 2015] BDRip 1080p, Dub [чистый звук]

salma3

1973 | 68

15.83 ГБ

В этой теме нет новых непрочитанных сообщений. Звёздные войны: Пробуждение силы / Star Wars: Episode VII - The Force Awakens [фантастика, приключения, боевик, 2015] BDRip-AVC, Dub [чистый звук]

salma3

73 | 1

2.73 ГБ

В этой теме нет новых непрочитанных сообщений. Звёздные войны: Пробуждение силы / Star Wars: Episode VII - The Force Awakens (фантастика, фэнтези, боевик, приключения, 2015) BDRip-AVC от HELLYWOOD | Лицензия

marya111

337 | 27

2.91 ГБ

В этой теме нет новых непрочитанных сообщений. Звёздные войны: Пробуждение силы / Star Wars: Episode VII - The Force Awakens (фантастика, фэнтези, боевик, приключения, 2015) BDRip 720p от HELLYWOOD | Лицензия, P, A

marya111

56 | 16

7.95 ГБ

В этой теме нет новых непрочитанных сообщений. Звёздные войны: Пробуждение силы / Star Wars: Episode VII - The Force Awakens ( Фантастика, Фэнтези, Боевик, Приключения, 2015) BDRip 1080p от Ash61 | 3D-Video | halfOU

marya111

271 | 43

15.34 ГБ

В этой теме нет новых непрочитанных сообщений. Звездные войны: Повстанцы / Star Wars Rebels [01x01-04] (Стюарт Ли, Дэйв Филони, Стивен Дж. Ли) [2014, мультфильм, фантастика, фэнтези, боевик, приключения, WEB-DL 720p | LE-Production]

Nickolas3435

20 | 10

4.6 ГБ

В этой теме нет новых непрочитанных сообщений. Звездные войны: Повстанцы / Star Wars Rebels [01x00-05 из 16] (Стюарт Ли, Дэйв Филони, Стивен Дж. Ли)[2014, мультфильм, фантастика, фэнтези, боевик, приключения, WEB-DL 720p | LE-Production]

Nickolas3435

16 | 7

5.36 ГБ


Начать новую тему Ответить на тему  [ 1 сообщение ] 




Для Мосгорсуда, Роскомнадзора и рекламодателей:: mosgorsud-torrent[собачка]yandex.ru