Торрент файл
скачать торрент магнет ссылка Добавлен: 25 мар 2016, 15:11
Размер: 1.45 ГБ
Сидеров: 2
Личеров: 1
Статус: (salma3)
Автор

СообщениеДобавлено: 25 мар 2016, 15:11 

В сети
Супермодератор
Аватара пользователя
Дата регистрации:
15 фев 2012, 16:44
Возраст: 28
Спасибо: 6577 / 2143
Сообщения: 43886
Страна: США
Жанр: Боевик , военный
Год выпуска: 1988
Продолжительность: 1:38:56

Перевод: Авторский (одноголосый закадровый) Ю.Живов
Cубтитры: нет
Режиссер: Энтони Махарадж / Anthony Maharaj

В ролях: Ричард Нортон, Майкл Джон Мейер, Рен Т. Браун, Дональд Пол Пемрик, Дэниэл Дитрих, Эрик Хан, Стивен Янг, Гленн Руеланд, Франко Герерро, Пол Холмс

Описание: Стрейкер (Ричард Нортон) бывший ветеран Вьетнама. Во время ограбления дома его жена и дочь были убиты.
Ему предлагают вернуться во Вьетнам , чтобы спасти некоторых военнопленных , а также его бывшего командира Харрисона. Так как ему уже нечего терять он соглашается выполнить эту миссию.

Доп. информация: За звуковую дорожку спасибо Evil ED 86

Сэмпл: https://www.sendspace.com/file/c0fs7w

Качество видео: VHSRip
Формат видео: AVI
Видео: XviD MPEG-4 , 640x480 (1.33:1) , 25.000 fps , 1 901 Kbps
Аудио: АC3 , 48 kHz , 192.00 kbps avg , 2/0 (L,R) ch
Complete name Другой ошибки не будет 1988.avi
Format : AVI
Format/Info : Audio Video Interleave
File size : 1.45 GiB
Duration : 1h 38mn
Overall bit rate : 2 103 Kbps
Writing application : VirtualDubMod 1.5.10.3 | http://www.virtualdub-fr.org || (build 2550/release)
Writing library : VirtualDub build 35491/release

Video
ID : 0
Format : MPEG-4 Visual
Format profile : Advanced Simple@L5
Format settings, BVOP : 1
Format settings, QPel : No
Format settings, GMC : No warppoints
Format settings, Matrix : Custom
Codec ID : XVID
Codec ID/Hint : XviD
Duration : 1h 38mn
Bit rate : 1 901 Kbps
Width : 640 pixels
Height : 480 pixels
Display aspect ratio : 4:3
Frame rate : 25.000 fps
Color space : YUV
Chroma subsampling : 4:2:0
Bit depth : 8 bits
Scan type : Progressive
Compression mode : Lossy
Bits/(Pixel*Frame) : 0.248
Stream size : 1.31 GiB (90%)
Writing library : XviD 73

Audio
ID : 1
Format : AC-3
Format/Info : Audio Coding 3
Mode extension : CM (complete main)
Format settings, Endianness : Big
Codec ID : 2000
Duration : 1h 38mn
Bit rate mode : Constant
Bit rate : 192 Kbps
Channel(s) : 2 channels
Channel positions : Front: L R
Sampling rate : 48.0 KHz
Frame rate : 31.250 fps (1536 spf)
Compression mode : Lossy
Stream size : 136 MiB (9%)
Alignment : Aligned on interleaves
Interleave, duration : 40 ms (1.00 video frame)
Interleave, preload duratio : 512 ms


_________________
Проголосуй за трекер Открытый торрент трекер - RUS-MEDIA.ORG

Проголосуй Открытый торрент трекер - RUS-MEDIA.ORG



реклама партнёра


Вернуться к началу
 Профиль Отправить личное сообщение  
 
   Похожие торренты   Автор   Торрент   Размер 
В этой теме нет новых непрочитанных сообщений. Ошибки прошлого / Исправлять ошибки / Rectify [S03-1 из 10] [драма, 2015] WEB-DLRip, mvo

Dracon

10 | 1

450.2 МБ

В этой теме нет новых непрочитанных сообщений. Ошибки прошлого / Исправлять ошибки / Rectify [S02] [драма, 2014] WEB-DLRip, mvo

Dracon

1 | 2

4.49 ГБ

В этой теме нет новых непрочитанных сообщений. Скорострельный / Fast Gun [Боевик, триллер, криминал, 1988] VHSRip, Avo

salma3

1 | 0

1.09 ГБ

В этой теме нет новых непрочитанных сообщений. Зверь войны / The Beast [Драма, Военный, Боевик, 1988] WEB-DLRip, Avo

salma3

103 | 11

1.46 ГБ

В этой теме нет новых непрочитанных сообщений. Крысы джунглей / Jungle Rats [боевик, военный, 1988] DVDRip, Avo

salma3

53 | 8

1.46 ГБ

В этой теме нет новых непрочитанных сообщений. Белый призрак / White Ghost [Боевик, приключения, военный, 1988] BDRip-AVC, Mvo

salma3

58 | 39

2.78 ГБ

В этой теме нет новых непрочитанных сообщений. Белый призрак / White Ghost [боевик, приключения, военный, 1988] BDRemux 1080р, Mvo

salma3

22 | 10

20.8 ГБ


Начать новую тему Ответить на тему  [ 1 сообщение ] 




Для Мосгорсуда, Роскомнадзора и рекламодателей:: mosgorsud-torrent[собачка]yandex.ru